<?xml version="1.0" standalone="no"?>
<!DOCTYPE svg PUBLIC "-//W3C//DTD SVG 1.1//EN" "http://www.w3.org/Graphics/SVG/1.1/DTD/svg11.dtd" >
<svg xmlns="http://www.w3.org/2000/svg">
<metadata>Generated by IcoMoon</metadata>
<defs>
<font id="icomoon" horiz-adv-x="1024">
<font-face units-per-em="1024" ascent="960" descent="-64" />
<missing-glyph horiz-adv-x="1024" />
<glyph unicode="&#x20;" horiz-adv-x="512" d="" />
<glyph unicode="&#xe900;" glyph-name="ico-at" d="M425.6 723.2l25.6-70.4c28.8-80 89.6-140.8 169.6-169.6l70.4-25.6c6.4-3.2 6.4-12.8 0-12.8l-70.4-28.8c-80-28.8-140.8-89.6-169.6-169.6l-25.6-70.4c-3.2-6.4-12.8-6.4-12.8 0l-25.6 70.4c-28.8 80-89.6 140.8-169.6 169.6l-70.4 25.6c-6.4 3.2-6.4 12.8 0 12.8l67.2 25.6c80 28.8 140.8 89.6 169.6 169.6l25.6 70.4c3.2 9.6 12.8 9.6 16 3.2zM745.6 892.8l12.8-35.2c16-41.6 44.8-70.4 86.4-86.4l35.2-12.8c3.2 0 3.2-6.4 0-6.4l-35.2-12.8c-41.6-16-70.4-44.8-86.4-86.4l-12.8-35.2c0-3.2-6.4-3.2-6.4 0l-12.8 35.2c-16 41.6-44.8 70.4-86.4 86.4l-35.2 12.8c-3.2 0-3.2 6.4 0 6.4l35.2 12.8c41.6 16 70.4 44.8 86.4 86.4l12.8 35.2c3.2 3.2 6.4 3.2 6.4 0zM745.6 281.6l12.8-35.2c16-41.6 44.8-70.4 86.4-86.4l35.2-12.8c3.2 0 3.2-6.4 0-6.4l-35.2-12.8c-41.6-16-70.4-44.8-86.4-86.4l-12.8-35.2c0-3.2-6.4-3.2-6.4 0l-12.8 35.2c-16 41.6-44.8 70.4-86.4 86.4l-35.2 12.8c-3.2 0-3.2 6.4 0 6.4l35.2 12.8c41.6 16 70.4 44.8 86.4 86.4l12.8 35.2c3.2 3.2 6.4 3.2 6.4 0z" />
<glyph unicode="&#xe901;" glyph-name="announcement" d="M696.656 847.528l-496.892-268.59h-171.226c-15.108 0-28.538-13.43-28.538-28.538v-198.085c0-15.108 11.751-28.538 28.538-28.538h78.898c-5.036-80.577 40.289-157.797 117.508-189.692 23.502-10.072 132.616-38.61 221.587 57.075l251.803-137.652c31.895-11.751 41.967 15.108 41.967 25.18v745.338c-1.679 10.072-10.072 35.252-43.646 23.502zM57.075 521.862h122.544v-141.010h-122.544v141.010zM245.089 187.803c-55.397 23.502-87.292 78.898-82.256 137.652h36.931l193.049-105.757c-35.252-40.289-95.685-53.718-147.725-31.895zM235.016 369.102v164.511l448.21 243.41v-649.652l-448.21 241.731zM923.279 684.695c-10.072 11.751-28.538 11.751-40.289 1.679l-83.934-80.577c-11.751-10.072-11.751-30.216-1.679-40.289 13.43-11.751 35.252-6.715 40.289 0l83.934 80.577c11.751 10.072 11.751 26.859 1.679 38.61zM987.069 479.895h-115.83c-15.108 0-28.538-11.751-28.538-28.538 0-15.108 11.751-28.538 28.538-28.538h115.83c15.108 0 28.538 11.751 28.538 28.538 0 15.108-11.751 28.538-28.538 28.538zM921.6 256.63l-83.934 80.577c-11.751 10.072-28.538 10.072-40.289-1.679-10.072-11.751-10.072-28.538 1.679-40.289l83.934-80.577c5.036-5.036 26.859-11.751 40.289 1.679 10.072 11.751 10.072 30.216-1.679 40.289z" />
<glyph unicode="&#xe902;" glyph-name="automotriz-old" d="M894.293 521.728h-35.499c-13.653 0-27.307 5.461-39.595 13.653l-167.936 135.168c-17.749 15.019-40.96 23.211-64.171 23.211h-309.931c-34.133 0-66.901-17.749-86.016-46.421l-36.864-54.613c-12.288-17.749-31.403-27.307-51.883-27.307-57.344 0-102.4-46.421-102.4-102.4v-86.016c0-47.787 34.133-88.747 79.189-99.669 0 4.096-1.365 9.557-1.365 15.019 0 6.827 1.365 15.019 2.731 21.845-25.941 9.557-45.056 34.133-45.056 64.171v86.016c0 38.229 30.037 68.267 68.267 68.267 32.768 0 62.805 16.384 80.555 43.691l36.864 54.613c12.288 19.115 34.133 30.037 57.344 30.037h308.565c15.019 0 30.037-5.461 42.325-15.019l167.936-135.168c17.749-13.653 38.229-21.845 60.075-21.845h35.499c65.536 0 90.112-66.901 90.112-110.592 0-34.133-20.48-55.979-45.056-64.171 1.365-6.827 2.731-13.653 2.731-21.845 0-5.461 0-9.557-1.365-15.019 46.421 10.923 79.189 50.517 79.189 99.669 0 69.632-43.691 144.725-124.245 144.725zM700.416 308.736h-370.005c1.365-5.461 1.365-10.923 1.365-17.749 0-5.461 0-12.288-1.365-17.749h370.005c-1.365 5.461-1.365 10.923-1.365 17.749 0 5.461 0 10.923 1.365 17.749zM204.8 379.733c-49.152 0-88.747-39.595-88.747-88.747s39.595-88.747 88.747-88.747c49.152 0 88.747 39.595 88.747 88.747s-39.595 88.747-88.747 88.747zM204.8 232.277c-32.768 0-58.709 25.941-58.709 58.709s25.941 58.709 58.709 58.709c32.768 0 58.709-25.941 58.709-58.709s-25.941-58.709-58.709-58.709zM701.781 521.728h-196.608v68.267c0 9.557-8.192 17.749-17.749 17.749s-17.749-8.192-17.749-17.749v-86.016c0-9.557 8.192-17.749 17.749-17.749h214.357c9.557 0 17.749 8.192 17.749 17.749s-8.192 17.749-17.749 17.749zM402.773 521.728h-143.36l30.037 60.075c4.096 8.192 1.365 19.115-8.192 23.211-2.731 1.365-5.461 1.365-8.192 1.365-6.827 0-12.288-4.096-15.019-9.557l-42.325-86.016c-2.731-5.461-2.731-12.288 1.365-16.384 2.731-5.461 8.192-8.192 15.019-8.192h170.667c9.557 0 17.749 8.192 17.749 17.749s-8.192 17.749-17.749 17.749zM573.44 437.077h-42.325c-9.557 0-17.749-8.192-17.749-17.749s8.192-17.749 17.749-17.749h42.325c9.557 0 17.749 8.192 17.749 17.749s-8.192 17.749-17.749 17.749zM813.739 379.733c-49.152 0-88.747-39.595-88.747-88.747s39.595-88.747 88.747-88.747c49.152 0 88.747 39.595 88.747 88.747 1.365 49.152-39.595 88.747-88.747 88.747zM813.739 232.277c-32.768 0-58.709 25.941-58.709 58.709s25.941 58.709 58.709 58.709c32.768 0 58.709-25.941 58.709-58.709 1.365-32.768-25.941-58.709-58.709-58.709z" />
<glyph unicode="&#xe903;" glyph-name="bebes" d="M47.787 70.827c119.467-35.84 240.64-54.613 365.227-54.613 40.96 0 80.213 1.707 121.173 5.12 163.84 15.36 320.853 63.147 465.92 139.947 8.533 5.12 15.36 10.24 22.187 15.36 8.533 5.12 11.947 18.773 6.827 27.307v5.12h-39.253c-23.893-13.653-49.493-27.307-75.093-37.547-10.24-5.12-22.187 0-25.6 11.947l-110.933 336.213c47.787-13.653 69.973-69.973 71.68-71.68 3.413-10.24 13.653-15.36 23.893-13.653l69.973 6.827c6.827 0 11.947 3.413 15.36 8.533s5.12 10.24 5.12 17.067l-35.84 370.347c-1.707 23.893-23.893 40.96-46.080 37.547-109.227-13.653-201.387-51.2-274.773-112.64-64.853-54.613-97.28-112.64-112.64-143.36-1.707-3.413-3.413-6.827-3.413-8.533l-1.707-1.707h-5.12l-317.44-30.72c-17.067-1.707-30.72-15.36-35.84-32.427-17.067-64.853-90.453-114.347-90.453-114.347-5.12-3.413-10.24-10.24-10.24-17.067s1.707-13.653 5.12-18.773c42.667-46.080 88.747-51.2 117.76-47.787 5.12 0 11.947 1.707 17.067 3.413l-18.773-240.64c-1.707-11.947-11.947-20.48-23.893-17.067-30.72 6.827-63.147 17.067-93.867 25.6h-32.427v-11.947c-3.413-8.533 0-18.773 10.24-23.893 17.067-5.12 27.307-8.533 35.84-11.947zM529.067 67.413c-69.973-6.827-138.24-6.827-208.213-1.707-11.947 1.707-20.48 13.653-17.067 25.6l8.533 27.307c1.707 6.827 6.827 10.24 13.653 13.653 30.72 8.533 58.027 29.013 80.213 58.027 17.067 22.187 27.307 46.080 32.427 71.68 1.707 8.533 10.24 15.36 18.773 15.36l211.627-1.707c6.827 0 13.653-3.413 17.067-10.24l68.267-128c5.12-10.24 0-23.893-11.947-27.307-69.973-23.893-139.947-35.84-213.333-42.667zM464.213 560.64c13.653 1.707 23.893-11.947 20.48-25.6-5.12-13.653-11.947-25.6-20.48-37.547-20.48-23.893-49.493-39.253-80.213-42.667-32.427-3.413-63.147 6.827-87.040 27.307-11.947 8.533-20.48 20.48-27.307 32.427s0 27.307 15.36 29.013l179.2 17.067zM153.6 393.387c-10.24-1.707-22.187 0-32.427 3.413-13.653 3.413-17.067 22.187-6.827 32.427 23.893 22.187 49.493 54.613 63.147 92.16 1.707 6.827 8.533 11.947 17.067 13.653 8.533 0 17.067-3.413 20.48-11.947 10.24-29.013 27.307-54.613 51.2-75.093 30.72-23.893 66.56-37.547 104.107-37.547h17.067c44.373 5.12 83.627 25.6 110.933 59.733 27.307 32.427 39.253 73.387 37.547 114.347 0 1.707 1.707 3.413 1.707 5.12 1.707 3.413 1.707 6.827 5.12 11.947 27.307 58.027 110.933 191.147 327.68 226.987 10.24 1.707 20.48-6.827 22.187-17.067l29.013-305.493c1.707-10.24-6.827-20.48-17.067-20.48-6.827 0-13.653 3.413-18.773 8.533-20.48 32.427-63.147 83.627-134.827 76.8-6.827 0-13.653-5.12-17.067-10.24s-5.12-13.653-3.413-18.773l122.88-375.467c3.413-10.24-1.707-20.48-11.947-23.893-6.827-1.707-13.653-5.12-20.48-6.827-8.533-3.413-18.773 0-23.893 8.533l-80.213 153.6c-6.827 13.653-20.48 22.187-35.84 22.187l-264.533 3.413c-6.827 0-11.947-3.413-17.067-6.827-5.12-5.12-6.827-11.947-5.12-17.067 1.707-25.6-6.827-54.613-25.6-80.213-17.067-23.893-40.96-39.253-64.853-44.373-15.36-3.413-27.307-13.653-32.427-29.013l-17.067-54.613c-3.413-8.533-11.947-15.36-20.48-13.653-6.827 1.707-11.947 1.707-18.773 3.413-10.24 1.707-17.067 10.24-15.36 20.48l23.893 288.427c0 8.533-3.413 17.067-11.947 22.187s-17.067 3.413-23.893-1.707c1.707-5.12-13.653-13.653-34.133-17.067zM808.96 640.853c17.067 1.707 30.72 17.067 29.013 34.133s-17.067 30.72-34.133 29.013c-17.067-1.707-30.72-17.067-29.013-34.133s17.067-30.72 34.133-29.013z" />
<glyph unicode="&#xe904;" glyph-name="fuego" d="M511.975-63.98c-115.194 0-223.389 44.798-304.785 126.194s-126.194 189.591-126.194 304.785c0 115.194 44.798 223.389 126.194 304.785l276.386 276.386c7.6 7.6 17.999 11.799 28.799 11.799 10.599-0.2 20.599-4.4 27.999-11.799 28.999-28.999 81.396-91.796 108.795-187.391 12.199-42.598 17.799-86.596 16.599-130.594-0.8-28.199-4.4-56.597-10.799-84.796 58.197 17.599 94.595 61.197 116.194 99.195 6.4 11.199 17.799 18.599 30.798 19.999 12.799 1.4 25.599-3.6 33.998-13.399 72.196-82.196 109.995-187.791 106.595-297.385-3.4-109.995-48.198-213.59-125.994-291.586v0 0c-81.196-81.396-189.391-126.194-304.585-126.194zM511.975 16.016c27.799 0 53.797 10.799 73.596 30.399 19.599 19.599 30.399 45.798 30.399 73.596s-10.799 53.797-30.399 73.596l-73.596 73.396-73.596-73.396c-19.599-19.799-30.399-45.798-30.399-73.596s10.799-53.797 30.399-73.596c19.799-19.599 45.798-30.399 73.596-30.399zM511.975 363.6c10.599 0 20.799-4.2 28.199-11.799l101.795-101.795c34.798-34.598 53.997-80.796 53.997-129.994 0-19.799-3.2-39.198-9.2-57.397 26.399 15.199 51.197 34.198 73.396 56.397 0 0 0 0 0 0 117.794 117.794 134.793 301.185 47.398 437.579-53.397-64.397-125.794-99.195-208.79-99.195-13.199 0-25.399 6.4-32.998 17.199-7.4 10.799-9.2 24.599-4.6 36.798 53.997 142.393 10.599 270.787-50.998 350.183l-246.388-246.388c-66.197-66.197-102.795-154.392-102.795-248.188s36.598-181.991 102.795-248.188c22.199-22.199 46.798-40.998 73.396-56.397-6 18.399-9.2 37.598-9.2 57.397 0 49.198 19.199 95.395 53.797 129.994l101.795 101.795c7.6 7.8 17.799 11.999 28.399 11.999z" />
<glyph unicode="&#xe905;" glyph-name="calendar" horiz-adv-x="1026" d="M1024 586.492v172.066c0 65.049-52.459 117.508-117.508 117.508h-94.426v52.459c0 16.787-14.689 31.475-31.475 31.475s-31.475-14.689-31.475-31.475v-52.459h-470.033v52.459c0 16.787-14.689 31.475-31.475 31.475s-31.475-14.689-31.475-31.475v-52.459h-98.623c-65.049 0-117.508-52.459-117.508-117.508v-705.049c0-65.049 52.459-117.508 117.508-117.508h788.984c62.951 0 117.508 54.557 117.508 119.607v524.59c0 2.098 0 4.197 0 6.295zM117.508 811.016h98.623v-75.541c0-16.787 14.689-31.475 31.475-31.475s31.475 14.689 31.475 33.574v73.443h470.033v-75.541c0-16.787 14.689-31.475 31.475-31.475s31.475 14.689 31.475 33.574v73.443h92.328c29.377 0 52.459-23.082 52.459-52.459v-140.59h-893.902v140.59c0 29.377 25.18 52.459 54.557 52.459zM904.393 3.148h-788.984c-29.377 0-52.459 23.082-52.459 52.459v499.41h893.902v-499.41c0-29.377-23.082-52.459-52.459-52.459zM717.639 355.672l-123.803 16.787-56.656 113.311c-4.197 10.492-14.689 16.787-25.18 16.787s-20.984-6.295-25.18-16.787l-56.656-113.311-125.902-16.787c-10.492-2.098-20.984-8.393-23.082-18.885s0-20.984 8.393-29.377l92.328-88.131-23.082-125.902c-2.098-10.492 2.098-20.984 10.492-27.279 4.197-4.197 10.492-6.295 16.787-6.295 4.197 0 8.393 2.098 12.59 4.197l113.311 60.852 111.213-58.754c10.492-4.197 20.984-4.197 29.377 2.098s12.59 16.787 12.59 27.279l-20.984 125.902 90.23 88.131c8.393 8.393 10.492 18.885 6.295 29.377-4.197 6.295-12.59 14.689-23.082 16.787zM591.738 248.656c-6.295-6.295-10.492-16.787-8.393-25.18l12.59-81.836-71.344 39.869c-8.393 4.197-18.885 4.197-27.279 0l-73.443-39.869 14.689 81.836c2.098 10.492-2.098 18.885-8.393 25.18l-58.754 56.656 81.836 10.492c10.492 2.098 16.787 6.295 20.984 16.787l37.77 75.541 37.77-75.541c4.197-8.393 12.59-14.689 20.984-16.787l79.738-10.492-58.754-56.656z" />
<glyph unicode="&#xe906;" glyph-name="compass" d="M512 960c-282.8 0-512-229.2-512-512s229.2-512 512-512 512 229.2 512 512c-0.4 282.6-229.4 511.6-512 512zM512 0c-247.4 0-448 200.6-448 448s200.6 448 448 448 448-200.6 448-448c-0.2-247.4-200.6-447.8-448-448zM745 724.6l-316.8-181c-0.4-0.2-0.6-0.6-0.8-0.8-2-1.4-3.8-3-5.4-5-1.8-1.6-3.6-3.4-5-5.4-0.2-0.4-0.6-0.6-0.8-0.8l-181-316.8c-8.8-15.4-3.4-34.8 12-43.6 9.8-5.6 21.8-5.6 31.6 0l316.8 181c0.4 0.2 0.6 0.6 0.8 0.8 2 1.4 3.8 3 5.4 5 1.8 1.6 3.4 3.4 5 5.4 0.2 0.4 0.6 0.6 0.8 0.8l181 316.8c8.8 15.4 3.4 34.8-12 43.6-9.8 5.6-21.8 5.6-31.6 0zM349 285l102.2 178.6 76.4-76.4-178.6-102.2zM572.8 432.2l-76.4 76.4 178.6 102-102.2-178.4z" />
<glyph unicode="&#xe907;" glyph-name="cosmetica-old" d="M682.667 800.112c0 23.354-17.965 39.523-30.54 39.523s-30.54-16.168-30.54-39.523c0-23.354 17.965-39.523 30.54-39.523s30.54 14.372 30.54 39.523zM903.635 607.888c-41.319 35.93-91.621 64.674-145.516 82.639v163.481c0 48.505-39.523 86.232-86.232 86.232h-120.365c-48.505 0-86.232-39.523-86.232-86.232v-25.151c0-10.779 8.982-19.761 19.761-19.761s19.761 8.982 19.761 19.761v25.151c0 26.947 21.558 48.505 48.505 48.505h120.365c26.947 0 48.505-21.558 48.505-48.505v-152.702c-70.063 16.168-147.312 16.168-217.375 0v71.86c0 10.779-8.982 19.761-19.761 19.761s-19.761-8.982-19.761-19.761v-82.639c-53.895-17.965-104.196-44.912-145.516-82.639-79.046-68.267-122.161-161.684-122.161-258.695 0-111.382 57.488-215.579 156.295-283.846-12.575-12.575-19.761-26.947-19.761-44.912 0-34.133 28.744-62.877 62.877-62.877h434.751c34.133 0 62.877 28.744 62.877 62.877 0 17.965-7.186 34.133-19.761 46.709 19.761 14.372 39.523 30.54 55.691 48.505 7.186 7.186 7.186 19.761 0 26.947-3.593 3.593-8.982 5.389-14.372 5.389s-10.779-1.796-14.372-5.389c-21.558-21.558-44.912-41.319-71.86-57.488h-434.751c-100.604 61.081-159.888 159.888-159.888 265.881 0 179.649 168.87 325.165 377.263 325.165s377.263-145.516 377.263-325.165c0-59.284-17.965-116.772-53.895-167.074-5.389-8.982-3.593-21.558 5.389-26.947s21.558-3.593 26.947 5.389c39.523 57.488 61.081 122.161 61.081 188.632-1.796 95.214-46.709 186.835-125.754 256.898zM371.874 18.639c0 12.575 10.779 25.151 25.151 25.151h434.751c12.575 0 25.151-10.779 25.151-25.151 0-12.575-10.779-25.151-25.151-25.151h-434.751c-14.372 1.796-25.151 12.575-25.151 25.151zM838.961 830.653c5.389 0 8.982 1.796 12.575 5.389l32.337 30.54c7.186 7.186 7.186 19.761 0 26.947s-19.761 7.186-26.947 0l-32.337-30.54c-7.186-7.186-7.186-19.761 0-26.947 3.593-3.593 8.982-5.389 14.372-5.389zM842.554 812.688c-3.593-3.593-5.389-8.982-5.389-14.372 0-10.779 8.982-19.761 19.761-19.761h57.488c5.389 0 10.779 1.796 14.372 5.389s5.389 8.982 5.389 14.372c0 10.779-8.982 19.761-19.761 19.761h-57.488c-5.389 0-10.779-1.796-14.372-5.389zM824.589 756.996v0c-5.389-8.982-3.593-19.761 3.593-26.947l34.133-25.151c3.593-1.796 7.186-3.593 10.779-3.593 5.389 0 12.575 3.593 16.168 7.186s3.593 8.982 3.593 14.372-3.593 8.982-7.186 12.575l-34.133 25.151c-8.982 7.186-19.761 5.389-26.947-3.593zM754.526 507.284c-95.214 5.389-192.225 5.389-287.439 0-35.93-1.796-62.877-28.744-66.47-64.674-7.186-62.877-7.186-127.551 0-190.428 3.593-34.133 32.337-61.081 66.47-64.674 46.709-3.593 95.214-3.593 143.719-3.593s97.011 1.796 143.719 3.593c35.93 1.796 62.877 28.744 66.47 64.674 7.186 62.877 7.186 127.551 0 190.428-1.796 35.93-30.54 62.877-66.47 64.674zM783.27 257.572c-1.796-16.168-14.372-28.744-30.54-28.744-93.418-5.389-188.632-5.389-283.846 0-16.168 1.796-28.744 12.575-30.54 28.744-5.389 61.081-5.389 122.161 0 181.446 1.796 16.168 14.372 28.744 30.54 28.744 46.709 3.593 93.418 3.593 141.923 3.593 46.709 0 95.214-1.796 141.923-3.593 16.168-1.796 28.744-12.575 30.54-28.744 7.186-59.284 7.186-120.365 0-181.446zM256.898 90.498c-8.982 0-16.168-7.186-16.168-17.965v-19.761c0-19.761-12.575-35.93-26.947-35.93h-152.702c-14.372 0-26.947 16.168-26.947 35.93v278.456c0 5.389 3.593 10.779 7.186 10.779h68.267c8.982 0 16.168 8.982 16.168 19.761s-7.186 19.761-16.168 19.761h-46.709c-3.593 0-7.186 5.389-7.186 10.779v163.481c0 5.389 3.593 10.779 7.186 10.779h177.853c8.982 1.796 16.168 8.982 16.168 19.761s-7.186 17.965-17.965 19.761h-10.779v265.881c3.593 23.354 0 41.319-10.779 53.895-7.186 10.779-19.761 16.168-32.337 16.168-28.744 0-62.877-23.354-93.418-62.877-39.523-50.302-57.488-105.993-44.912-141.923v-132.94h-8.982c-3.593 0-7.186-1.796-10.779-3.593-3.593-3.593-5.389-8.982-5.389-14.372v-204.8h-5.389c-3.593 0-7.186-1.796-10.779-3.593-3.593-3.593-5.389-8.982-5.389-14.372v-308.996c0-41.319 26.947-75.453 61.081-75.453h152.702c34.133 0 61.081 34.133 61.081 75.453v19.761c-1.796 8.982-8.982 16.168-17.965 16.168zM84.435 748.014c-1.796 0-5.389 0-7.186 3.593-7.186 8.982-1.796 53.895 35.93 100.604 26.947 34.133 53.895 50.302 68.267 50.302 1.796 0 5.389 0 7.186-3.593 7.186-8.982 1.796-53.895-35.93-100.604-25.151-35.93-52.098-50.302-68.267-50.302zM79.046 708.491h5.389c28.744 0 62.877 23.354 93.418 62.877 5.389 7.186 8.982 12.575 14.372 19.761v-176.056c0-5.389-3.593-10.779-7.186-10.779h-98.807c-3.593 0-7.186 5.389-7.186 10.779v93.418z" />
<glyph unicode="&#xe908;" glyph-name="cross" d="M572.010 446.723l439.222 439.222c17.875 15.322 17.875 43.411 0 61.287-15.322 17.875-43.411 17.875-61.287 0 0 0 0 0 0 0l-439.222-439.222-436.668 439.222c-17.875 15.322-43.411 15.322-61.287 0-15.322-15.322-15.322-43.411 0-58.733l439.222-439.222-439.222-439.222c-17.875-17.875-17.875-43.411 0-61.287s43.411-17.875 61.287 0l436.668 439.222 439.222-439.222c17.875-15.322 43.411-15.322 61.287 0 15.322 15.322 15.322 43.411 0 58.733l-439.222 439.222z" />
<glyph unicode="&#xe909;" glyph-name="deportes" d="M1018.611 913.291c-1.796 7.186-5.389 12.575-10.779 16.168-10.779 7.186-26.947 3.593-34.133-7.186l-80.842-122.161h-156.295c-14.372 0-25.151-10.779-25.151-25.151s10.779-25.151 25.151-25.151h66.47l-120.365-352.112c-23.354 10.779-46.709 21.558-71.86 32.337-134.737 57.488-285.642 102.4-344.926 102.4h-3.593v107.789c0 7.186-3.593 14.372-8.982 19.761l-66.47 50.302h53.895c14.372 0 25.151 10.779 25.151 25.151s-10.779 25.151-25.151 25.151h-215.579c-14.372 0-25.151-10.779-25.151-25.151s10.779-25.151 25.151-25.151h82.639l107.789-82.639v-98.807c-77.249-19.761-136.533-79.046-156.295-156.295s3.593-158.091 62.877-211.986l-84.435-156.295c-3.593-7.186-3.593-17.965 0-25.151s12.575-10.779 21.558-10.779 16.168 5.389 21.558 12.575l80.842 150.905c25.151-14.372 53.895-23.354 82.639-26.947v-26.947h-16.168c-14.372 0-25.151-10.779-25.151-25.151s10.779-25.151 25.151-25.151h88.028c14.372 0 25.151 10.779 25.151 25.151s-10.779 25.151-25.151 25.151h-23.354v25.151c123.958 0 229.951 5.389 316.182 12.575 61.081 5.389 111.382 14.372 150.905 25.151l84.435-159.888c3.593-5.389 8.982-10.779 14.372-12.575s12.575-1.796 17.965 1.796c5.389 3.593 10.779 8.982 12.575 14.372s1.796 12.575-1.796 17.965l-80.842 150.905c50.302 19.761 73.656 44.912 73.656 77.249 0 34.133-28.744 70.063-88.028 109.586-21.558 14.372-43.116 26.947-64.674 37.726l127.551 373.67h52.098c8.982 0 16.168 3.593 19.761 10.779l88.028 132.94c3.593 5.389 3.593 12.575 3.593 17.965zM265.881 338.414c-14.372 0-25.151-10.779-25.151-25.151v-68.267c-34.133 12.575-55.691 46.709-50.302 82.639 5.389 37.726 37.726 66.47 77.249 66.47s71.86-30.54 75.453-68.267c3.593-35.93-17.965-70.063-52.098-82.639v68.267c-1.796 14.372-12.575 26.947-25.151 26.947zM289.235 149.782v44.912c62.877 12.575 107.789 70.063 102.4 132.94-5.389 64.674-59.284 116.772-123.958 116.772h-1.796c-64.674 0-120.365-50.302-125.754-114.975-5.389-62.877 37.726-122.161 100.604-134.737v-43.116c-26.947 3.593-52.098 14.372-73.656 30.54-1.796 1.796-1.796 1.796-3.593 3.593-55.691 44.912-79.046 118.568-55.691 186.835s86.232 113.179 158.091 113.179c44.912 0 181.446-37.726 325.165-98.807 71.86-30.54 131.144-61.081 174.26-89.825 48.505-32.337 66.47-55.691 66.47-68.267 0-3.593-3.593-19.761-59.284-37.726-39.523-12.575-97.011-23.354-170.667-30.54-84.435-7.186-190.428-10.779-312.589-10.779z" />
<glyph unicode="&#xe90a;" glyph-name="down" d="M14.985 632.82l462.049-442.068c17.483-17.483 44.956-17.483 62.439 0l462.049 442.068c17.483 17.483 17.483 44.956 2.498 62.439-17.483 17.483-44.956 17.483-64.937 2.498l-432.078-412.098-429.58 412.098c-9.99 7.493-19.98 12.488-32.468 12.488s-24.976-4.995-32.468-14.985c-7.493-7.493-12.488-17.483-12.488-29.971s4.995-24.976 14.985-32.468z" />
<glyph unicode="&#xe90b;" glyph-name="down_2" d="M447.462 960v-783.059l-361.412 361.412-86.050-94.655 516.303-516.303 516.303 516.303-86.050 86.050-370.017-352.807v783.059h-129.076z" />
<glyph unicode="&#xe90c;" glyph-name="down_3" d="M917.333 401.067l-34.133 34.133c-8.533 8.533-25.6 17.067-38.4 17.067-17.067 0-29.867-4.267-38.4-17.067l-217.6-217.6v686.933c0 29.867-25.6 55.467-55.467 55.467h-46.933c-29.867 0-55.467-25.6-55.467-55.467v0-686.933l-217.6 213.333c-8.533 8.533-25.6 17.067-38.4 17.067-17.067 0-29.867-4.267-38.4-17.067l-34.133-34.133c-8.533-8.533-17.067-25.6-17.067-38.4 0-17.067 4.267-29.867 17.067-38.4l371.2-371.2c8.533-8.533 25.6-17.067 38.4-17.067 17.067 0 29.867 4.267 38.4 17.067l371.2 371.2c8.533 8.533 17.067 25.6 17.067 38.4-4.267 17.067-8.533 29.867-21.333 42.667z" />
<glyph unicode="&#xe90d;" glyph-name="ico-refreshing" d="M464.951 918.486c5.535 0 11.070-2.768 16.605-2.768 30.443-8.303 49.816-35.978 47.049-69.189-2.768-30.443-24.908-55.351-58.119-58.119s-63.654-5.535-96.865-13.838c-69.189-19.373-127.308-55.351-171.589-113.47-33.211-38.746-52.584-85.795-63.654-135.611-16.605-69.189-8.303-138.378 19.373-204.8 33.211-77.492 91.33-135.611 168.822-171.589 58.119-27.676 119.005-35.978 182.659-24.908 74.724 11.070 141.146 44.281 193.73 99.632 49.816 49.816 80.259 110.703 91.33 182.659 0 2.768 0 2.768 0 8.303-11.070-8.303-22.141-16.605-35.978-16.605-35.978 0-58.119 35.978-41.514 69.189 2.768 2.768 2.768 5.535 5.535 8.303 30.443 47.049 60.886 91.33 91.33 138.378 13.838 22.141 33.211 33.211 60.886 27.676 19.373-2.768 30.443-11.070 41.514-27.676 30.443-47.049 63.654-94.097 94.097-141.146 2.768-5.535 5.535-11.070 8.303-19.373 0-5.535 0-13.838 0-19.373 0 0-2.768-2.768-2.768-2.768-13.838-38.746-55.351-47.049-83.027-16.605 0 0-2.768 2.768-2.768 2.768-5.535-27.676-8.303-52.584-16.605-80.259-30.443-110.703-94.097-199.265-188.195-265.686-58.119-41.514-124.541-66.422-193.73-74.724-19.373-2.768-41.514-2.768-60.886-5.535-2.768 0-5.535 0-11.070 0-2.768 0-5.535 0-11.070 0-105.168 2.768-199.265 38.746-279.524 105.168-85.795 71.957-141.146 166.054-160.519 276.757-2.768 16.605-5.535 35.978-8.303 52.584 0 19.373 0 38.746 0 58.119 2.768 11.070 2.768 24.908 5.535 35.978 16.605 116.238 69.189 213.103 157.751 287.827 66.422 58.119 146.681 91.33 235.243 105.168 19.373 2.768 38.746 2.768 58.119 5.535 2.768 0 5.535 0 8.303 0z" />
<glyph unicode="&#xe90e;" glyph-name="external" d="M0 924.029v-760.772c0-19.835 16.137-35.971 35.971-35.971s35.971 16.137 35.971 35.971v674.374l891.209-891.209c14.12-14.12 36.643-14.12 50.763 0s14.12 36.643 0 50.763l-891.546 891.209h674.038c19.835 0 35.971 16.137 35.971 35.971 0 9.749-4.034 18.826-10.422 25.213s-15.464 10.422-25.213 10.422h-760.772c-19.835 0-35.971-16.137-35.971-35.971z" />
<glyph unicode="&#xe90f;" glyph-name="facebook" d="M757-64h-490c-147.2 0-267 119.8-267 267v490c0 147.2 119.8 267 267 267h489.8c147.2 0 267-119.8 267-267v-489.8c0.2-147.4-119.6-267.2-266.8-267.2zM267 886.8c-107 0-194-87-194-194v-489.8c0-107 87-194 194-194h489.8c107 0 194 87 194 194v490c0 107-87 194-194 194h-489.8zM427.8 529.2v55.2c0 20.4 3.4 39.4 10.4 57.2s16.4 33.2 28.6 46.2c12 13 26.2 23.4 42.4 31s33.4 11.4 51.8 11.4h89.4v-109.4h-89.4c-5 0-10-3.4-14.8-10s-7.2-14.8-7.2-24.2v-57.2h111.4v-111.6h-111.4v-270.4h-111.4v270.4h-89.4v111.4h89.6z" />
<glyph unicode="&#xe910;" glyph-name="favourite" horiz-adv-x="1152" d="M1066.944 856.384v0c-58.752 66.784-140.512 103.616-230.048 103.616-126.208 0-205.76-74.784-250.176-137.696-3.456-4.768-6.688-9.76-9.984-14.752-3.232 4.96-6.496 9.984-9.984 14.752-44.448 62.848-124.032 137.696-250.176 137.696-89.536 0-171.296-36.864-230.048-103.616-55.712-63.296-86.496-147.84-86.496-237.824 0-97.792 37.728-188.192 118.592-284.256 70.464-83.712 170.624-169.12 286.624-268 42.944-36.672 87.168-74.368 134.4-115.552l1.504-1.312c9.984-8.672 22.56-13.44 35.744-13.44s25.792 4.768 35.744 13.44l1.312 1.312c47.040 41.184 91.264 78.912 134.208 115.328l0.224 0.224c116 98.88 216.16 184.288 286.624 268 80.896 96.288 118.592 186.464 118.592 284.256-0.224 89.984-31.008 174.528-86.72 237.824zM167.84 784.608c38.176 43.136 90.848 67.008 148.736 67.008 80.032 0 132.032-49.856 161.728-91.904 27.552-38.816 42.048-78.048 46.816-93.216 7.36-22.336 27.968-37.536 51.616-37.536s44.224 14.944 51.616 37.536c4.96 14.944 19.296 54.208 46.816 93.216 29.696 41.856 81.952 91.904 161.728 91.904 57.888 0 110.816-23.872 148.736-67.008 38.176-43.36 59.392-102.336 59.392-166.080 0-156.96-145.92-281.44-367.040-469.856-32.512-27.744-66.144-56.384-101.248-86.72-35.104 30.56-68.736 58.976-101.248 86.72-221.12 188.416-367.040 312.864-367.040 469.856 0 63.712 21.024 122.72 59.392 166.080z" />
<glyph unicode="&#xe911;" glyph-name="indumentaria" d="M996.597 634.051l-77.882 100.958-36.056 46.152c-30.287 38.941-43.268 56.248-102.4 56.248h-44.71c-11.538 0-21.634-4.327-28.845-12.98-38.941-43.268-95.189-69.228-155.763-69.228-59.132 0-115.38 24.518-155.763 69.228-7.211 8.654-17.307 12.98-28.845 12.98h-44.71c-59.132 0-73.555-17.307-102.4-56.248l-113.938-147.11c-11.538-14.423-18.749-24.518-18.749-38.941-1.442-17.307 10.096-30.287 20.192-40.383l80.766-85.093c15.865-15.865 25.961-27.403 41.825-27.403 14.423 0 25.961 10.096 37.499 23.076l5.769 5.769v-95.189c0-10.096 8.654-18.749 18.749-18.749s18.749 8.654 18.749 18.749l1.442 142.783c0 7.211-4.327 14.423-11.538 18.749-7.211 2.885-15.865 1.442-21.634-4.327l-38.941-38.941c-5.769-5.769-8.654-8.654-10.096-10.096l-14.423 14.423-80.766 85.093c-7.211 7.211-8.654 11.538-10.096 11.538 1.442 2.885 8.654 12.98 11.538 17.307l109.611 141.341 4.327 5.769c27.403 36.056 31.73 41.825 72.113 41.825h36.056c5.769 0 10.096-2.885 14.423-5.769 46.152-47.594 111.054-74.997 178.839-74.997s132.687 27.403 178.839 74.997c4.327 4.327 8.654 5.769 14.423 5.769h36.056c40.383 0 44.71-5.769 72.113-41.825l113.938-147.11c2.885-4.327 10.096-12.98 11.538-17.307 0-1.442-2.885-4.327-10.096-11.538l-80.766-85.093c-4.327-5.769-10.096-11.538-14.423-14.423-1.442 1.442-5.769 4.327-10.096 10.096l-38.941 38.941c-5.769 5.769-14.423 7.211-21.634 4.327s-11.538-10.096-11.538-18.749l4.327-387.966v-10.096c0-10.096-8.654-18.749-18.749-18.749h-152.879c-10.096 0-18.749-8.654-18.749-18.749s8.654-18.749 18.749-18.749h144.225c23.076 0 41.825 0 54.806 12.98 11.538 11.538 11.538 28.845 11.538 56.248l-2.885 338.93 5.769-5.769c11.538-12.98 23.076-23.076 37.499-23.076 15.865 0 25.961 11.538 41.825 27.403l80.766 85.093c10.096 11.538 21.634 23.076 20.192 40.383-1.442 12.98-8.654 24.518-20.192 37.499zM556.71 473.961c23.076-41.825 25.961-59.132 25.961-67.786 0-30.287-27.403-90.862-31.73-98.073l-4.327-7.211c-2.885-23.076-11.538-76.439-8.654-111.054v-74.997h5.769v-11.538c0-12.98-10.096-23.076-23.076-23.076s-23.076 10.096-23.076 23.076v11.538h5.769v73.555c-1.442 20.192 0 46.152 2.885 67.786 1.442 15.865-14.423 30.287-30.287 24.518h-1.442c-11.538-2.885-31.73-15.865-60.575-59.132-21.634-30.287-40.383-66.344-53.363-90.862l-2.885-7.211c-12.98-23.076-34.614-38.941-62.017-44.71-8.654-1.442-15.865-1.442-21.634-1.442-7.211 0-12.98 0-14.423 1.442l-245.183 20.192-4.327 2.885c-8.654 7.211-10.096 20.192-10.096 28.845 0 21.634 18.749 34.614 20.192 36.056h1.442l128.361 66.344 5.769-8.654c1.442-1.442 2.885-4.327 5.769-5.769 5.769-4.327 20.192-11.538 46.152-15.865 25.961-5.769 70.67 2.885 142.783 137.014 56.248 103.842 125.476 157.206 149.994 173.070 5.769 4.327 11.538 4.327 18.749 2.885l4.327-1.442c5.769-1.442 11.538-4.327 14.423-10.096 4.327-5.769 11.538-17.307 18.749-30.287zM513.442 328.293c7.211 1.442 12.98 7.211 15.865 12.98 10.096 23.076 20.192 50.479 20.192 64.901 0 8.654-8.654 28.845-21.634 50.479-7.211 12.98-24.518 15.865-36.056 5.769-28.845-25.961-72.113-70.67-109.611-137.014-59.132-106.727-109.611-155.763-162.975-155.763-5.769 0-11.538 0-17.307 1.442-21.634 4.327-37.499 10.096-47.594 14.423-7.211 2.885-14.423 2.885-21.634 0l-92.304-47.594c-1.442-1.442-2.885-2.885-2.885-4.327l229.318-18.749c1.442 0 44.71-7.211 62.017 27.403l2.885 7.211c38.941 73.555 85.093 151.437 135.572 165.859 20.192 5.769 36.056 10.096 46.152 12.98z" />
<glyph unicode="&#xe912;" glyph-name="info" d="M507.643 591.796c-26.145 0-43.574-10.894-43.574-26.145v-215.694c0-13.072 17.43-28.323 43.574-28.323 23.966 0 43.574 13.072 43.574 28.323v215.694c0 15.251-19.609 26.145-43.574 26.145zM507.643 726.877c-26.145 0-45.753-19.609-45.753-41.396s19.609-41.396 45.753-41.396c26.145 0 45.753 19.609 45.753 41.396s-19.609 41.396-45.753 41.396zM507.643 960c-244.017 0-442.281-198.264-442.281-442.281 0-200.443 130.723-366.026 309.379-422.672l100.221-148.153c6.536-10.894 19.609-17.43 32.681-17.43s26.145 6.536 32.681 17.43l100.221 148.153c176.477 56.647 309.379 222.23 309.379 422.672 0 244.017-198.264 442.281-442.281 442.281zM605.685 169.123c-8.715-2.179-17.43-8.715-21.787-15.251l-76.255-111.115-74.077 111.115c-4.357 8.715-13.072 13.072-21.787 15.251-152.511 41.396-265.804 180.834-265.804 348.596 0 200.443 163.404 361.668 361.668 361.668 200.443 0 361.668-163.404 361.668-361.668 0-167.762-113.294-307.2-263.626-348.596z" />
<glyph unicode="&#xe913;" glyph-name="instagram" d="M757-64h-490c-147.2 0-267 119.8-267 267v490c0 147.2 119.8 267 267 267h489.8c147.2 0 267-119.8 267-267v-489.8c0.2-147.4-119.6-267.2-266.8-267.2zM267 886.8c-107 0-194-87-194-194v-489.8c0-107 87-194 194-194h489.8c107 0 194 87 194 194v490c0 107-87 194-194 194h-489.8zM512 155.4c-161.4 0-292.6 131.2-292.6 292.6s131.2 292.6 292.6 292.6 292.6-131.2 292.6-292.6-131.2-292.6-292.6-292.6zM512 667.4c-121 0-219.4-98.4-219.4-219.4s98.4-219.4 219.4-219.4 219.4 98.4 219.4 219.4-98.4 219.4-219.4 219.4zM841.2 758.8c0-30.2-24.6-54.8-54.8-54.8s-54.8 24.6-54.8 54.8c0 30.2 24.6 54.8 54.8 54.8s54.8-24.4 54.8-54.8z" />
<glyph unicode="&#xe914;" glyph-name="left" d="M704.312 945.015l-442.068-462.049c-17.483-17.483-17.483-44.956 0-62.439l442.068-462.049c17.483-17.483 44.956-17.483 62.439-2.498 17.483 17.483 17.483 44.956 2.498 64.937l-412.098 432.078 412.098 429.58c7.493 7.493 12.488 19.98 12.488 29.971 0 12.488-4.995 24.976-14.985 32.468-7.493 9.99-17.483 14.985-29.971 14.985s-24.976-4.995-32.468-14.985z" />
<glyph unicode="&#xe915;" glyph-name="left_2" d="M1024 512.538h-783.059l361.412 361.412-86.050 86.050-516.303-516.303 516.303-516.303 86.050 86.050-361.412 370.017h783.059v129.076z" />
<glyph unicode="&#xe916;" glyph-name="column" horiz-adv-x="1107" d="M0 938.667v-1024h498.389v1024zM608.114 938.667v-1024h498.389v1024zM48.531 890.136h401.327v-926.938h-401.327zM656.645 890.136h401.327v-926.938h-401.327z" />
<glyph unicode="&#xe917;" glyph-name="megaofertas" horiz-adv-x="1183" d="M1184.183 608.235v-231.967c0-16.457-14.106-29.675-30.877-28.16-14.838 1.306-25.704 14.733-25.704 29.623v230.504c0 11.912-0.366 22.936-10.449 41.587v0.052c-17.972 30.354-21.107 35.422-36.049 49.998l-35.161-268.957c-0.993-7.314-4.754-13.949-10.449-18.547l-577.515-460.957-0.313 0.47c-14.524-11.651-33.437-17.659-53.342-15.412-19.487 2.194-36.258 11.86-47.856 25.966l-1.411 1.776-339.905 425.848 0.679 0.627c-11.546 14.472-17.607 33.384-15.36 53.29s12.33 36.989 26.802 48.64l577.254 460.33c5.747 4.598 13.009 6.74 20.376 6.060l455.784-41.744c0.157 0 0.313 0 0.522-0.052 7.523-0.836 14.315-4.598 19.017-10.501 4.859-6.060 6.844-13.845 5.799-21.525l-16.353-120.686c27.063-15.987 60.709-41.012 79.151-82.077 0.052-0.157 0.157-0.313 0.209-0.47 10.815-22.152 15.151-46.655 15.151-73.718zM719.778 573.283c0 6.008-5.433 10.762-12.278 10.762h-45.871c-3.709 0-7.105-1.515-9.352-3.866l-143.726-152.921-143.517 152.921c-2.456 2.351-5.904 3.866-9.561 3.866h-45.871c-6.896 0-12.278-4.754-12.278-10.762v-291.579c0-6.008 5.381-10.762 12.278-10.762h83.644c6.844 0 12.278 4.754 12.278 10.762v124.656l93.466-102.661c4.65-5.172 14.472-5.172 19.122 0l93.727 102.661v-124.656c0-6.008 5.381-10.762 12.225-10.762h83.435c6.844 0 12.278 4.754 12.278 10.762v291.579zM1045.943 863.242l-360.176 32.914 312.477-391.471 29.727 223.399c-3.030 0.627-6.008 1.097-9.091 1.463l-37.042 4.127c-0.993-1.62-2.038-3.135-3.187-4.702-2.247-3.030-4.807-5.956-7.576-8.673-1.411-1.306-2.873-2.612-4.441-3.866-29.153-23.249-71.576-18.495-94.877 10.658-23.197 29.1-18.442 71.523 10.658 94.772 29.153 23.249 71.576 18.495 94.824-10.658 5.12-6.426 8.829-13.531 11.285-20.898l36.676-4.127c3.5-0.366 6.896-0.94 10.292-1.515l10.449 78.576z" />
<glyph unicode="&#xe918;" glyph-name="menu" d="M969.387 498.062h-923.876c-25.031 0-45.511-20.48-45.511-45.511s20.48-45.511 45.511-45.511h923.876c25.031 0 45.511 20.48 45.511 45.511s-20.48 45.511-45.511 45.511zM45.511 723.342h923.876c25.031 0 45.511 20.48 45.511 45.511s-20.48 45.511-45.511 45.511h-923.876c-25.031-2.276-45.511-22.756-45.511-47.787s20.48-43.236 45.511-43.236zM969.387 186.311h-923.876c-25.031 0-45.511-20.48-45.511-45.511s20.48-45.511 45.511-45.511h923.876c25.031 0 45.511 20.48 45.511 45.511s-20.48 45.511-45.511 45.511z" />
<glyph unicode="&#xe919;" glyph-name="muebles" d="M1012.297 513.829c-8.777 14.629-21.943 24.869-38.034 30.72v19.017c0 103.863-77.531 190.171-179.931 198.949h-548.571c-109.714 0-198.949-89.234-198.949-198.949v-19.017c-16.091-4.389-29.257-14.629-38.034-30.72-11.703-20.48-11.703-45.349-1.463-65.829l124.343-223.817c2.926-5.851 8.777-8.777 14.629-8.777v-65.829c0-8.777 7.314-16.091 16.091-16.091h198.949c8.777 0 16.091 7.314 16.091 16.091s-7.314 16.091-16.091 16.091h-108.251l20.48 49.737h473.966l29.257-71.68c2.926-5.851 8.777-10.24 16.091-10.24h65.829c8.777 0 16.091 7.314 16.091 16.091v65.829c5.851 0 11.703 2.926 14.629 8.777l124.343 223.817c11.703 20.48 10.24 45.349-1.463 65.829zM80.457 563.566c0 92.16 74.606 166.766 166.766 166.766h528.091c92.16 0 166.766-74.606 166.766-166.766v-16.091h-57.051c-5.851 0-10.24-2.926-13.166-7.314l-92.16-141.897h-533.943l-92.16 141.897c-2.926 4.389-8.777 7.314-13.166 7.314h-57.051v16.091h-2.926zM217.966 165.669h-38.034v49.737h58.514l-20.48-49.737zM841.143 165.669h-38.034l-20.48 49.737h58.514v-49.737zM984.503 464.091l-119.954-215.040h-709.486l-119.954 215.040c-5.851 10.24-5.851 23.406 0 33.646s17.554 16.091 29.257 16.091h61.44l92.16-141.897c2.926-4.389 8.777-7.314 13.166-7.314h551.497c5.851 0 10.24 2.926 13.166 7.314l92.16 141.897h61.44c11.703 0 23.406-5.851 29.257-16.091 11.703-10.24 11.703-23.406 5.851-33.646zM342.309 617.691c26.331 0 46.811-20.48 46.811-46.811s-32.183-46.811-46.811-46.811c-26.331 0-46.811 20.48-46.811 46.811 0 24.869 20.48 46.811 46.811 46.811zM649.509 617.691c26.331 0 46.811-20.48 46.811-46.811s-32.183-46.811-46.811-46.811c-26.331 0-46.811 20.48-46.811 46.811 0 24.869 20.48 46.811 46.811 46.811z" />
<glyph unicode="&#xe91a;" glyph-name="notification" d="M997.8 180.2c-4.4 1.8-31.6 14.2-31.6 45.4v60c0 84.4-59.2 156-138.2 175v26.4c0 22-18 40-40 40s-40-18-40-40v-25.8c-80-18.2-140.2-90.4-140.2-175.6v-60c0-31.2-27.2-43.6-31.6-45.4-16.4-5.4-26.2-20.4-26.2-37.6 0-25.6 9-53.4 24.2-74.6 21-29 52.2-45.2 88-45.2h85.8c0-22 18-40 40-40s40 18 40 40h83.8c35.8 0 67 16 88 45.2 15.2 21.2 24.2 49 24.2 74.6 0 17.4-10 32.2-26.2 37.6zM911.8 103h-249.6c-14.8 0-23 9.4-27.2 19.2 26.4 19.4 52.8 53.2 52.8 103.4v60c0 54.4 44.2 99.2 98.4 100 0.2 0 0.6 0 0.8 0s0.6 0 0.8 0c54.4-0.8 98.4-45.6 98.4-100v-60c0-50.2 26.4-84 52.8-103.4-4.2-9.8-12.4-19.2-27.2-19.2zM864 913h-704c-88.2 0-160-71.8-160-160v-462c0-88.2 71.8-160 160-160h276c22 0 40 18 40 40s-18 40-40 40h-276c-44.2 0-80 35.8-80 80v453.6l347.6-216c26-16.2 55.2-24.4 84.4-24.4s58.4 8.2 84.4 24.4l347.6 216v-241.6c0-22 18-40 40-40s40 18 40 40v250c0 88.2-71.8 160-160 160zM554.2 596.4c-26-16.2-58.4-16.2-84.4 0l-356.4 221.6c13.2 9.4 29.2 15 46.6 15h704c17.4 0 33.4-5.6 46.6-15l-356.4-221.6z" />
<glyph unicode="&#xe91b;" glyph-name="offer" d="M1021.992 468.078l-92.361 114.447 8.031 148.58c0 14.055-8.031 28.11-22.086 32.125l-142.557 38.149-80.314 124.486c-8.031 12.047-24.094 18.071-38.149 12.047l-138.541-52.204-138.541 52.204c-14.055 6.024-30.118 0-38.149-12.047l-80.314-124.486-144.565-38.149c-14.055-4.016-22.086-18.071-22.086-32.125l8.031-146.573-92.361-114.447c-10.039-12.047-10.039-28.11 0-38.149l92.361-118.463-8.031-148.58c0-14.055 8.031-28.11 22.086-32.125l142.557-38.149 80.314-124.486c8.031-12.047 24.094-18.071 38.149-12.047l138.541 52.204 138.541-52.204c4.016-2.008 8.031-2.008 12.047-2.008 10.039 0 20.078 6.024 26.102 14.055l80.314 124.486 142.557 38.149c14.055 4.016 24.094 16.063 22.086 32.125l-8.031 148.58 92.361 114.447c12.047 12.047 12.047 30.118 2.008 40.157zM873.412 188.988l-130.51-36.141c-8.031-2.008-14.055-6.024-18.071-12.047l-74.29-112.439-126.494 48.188c-8.031 2.008-16.063 2.008-22.086 0l-126.494-48.188-74.29 112.439c-4.016 6.024-10.039 10.039-18.071 12.047l-130.51 36.141 6.024 134.525c0 8.031-2.008 16.063-6.024 22.086l-84.329 104.408 84.329 104.408c4.016 6.024 8.031 14.055 6.024 22.086l-6.024 134.525 130.51 36.141c8.031 2.008 14.055 6.024 18.071 14.055l74.29 112.439 126.494-48.188c8.031-2.008 14.055-2.008 22.086 0l126.494 48.188 74.29-112.439c4.016-6.024 10.039-12.047 18.071-14.055l130.51-36.141-6.024-134.525c0-8.031 2.008-16.063 6.024-22.086l84.329-104.408-84.329-104.408c-4.016-6.024-8.031-14.055-6.024-22.086l6.024-134.525zM397.553 482.133c54.212 0 98.384 44.173 98.384 98.384s-44.173 98.384-98.384 98.384c-54.212 0-98.384-44.173-98.384-98.384s44.173-98.384 98.384-98.384v0zM361.412 578.51c0 20.078 16.063 36.141 36.141 36.141s36.141-16.063 36.141-36.141c0-10.039-4.016-18.071-10.039-24.094s-16.063-10.039-24.094-10.039c-22.086 0-38.149 16.063-38.149 34.133zM626.447 411.859c-54.212 0-98.384-44.173-98.384-98.384v0c0-54.212 44.173-98.384 98.384-98.384s98.384 44.173 98.384 98.384c-2.008 54.212-44.173 98.384-98.384 98.384zM660.58 313.475c0-20.078-16.063-36.141-36.141-36.141s-36.141 16.063-36.141 36.141c0 20.078 16.063 36.141 36.141 36.141s36.141-16.063 36.141-36.141zM692.706 692.957c-6.024 10.039-16.063 16.063-26.102 16.063s-22.086-4.016-28.11-14.055l-299.169-457.788c-4.016-6.024-6.024-16.063-4.016-24.094s6.024-16.063 14.055-20.078v0c6.024-4.016 10.039-6.024 16.063-6.024 2.008 0 4.016 0 6.024 0 8.031 2.008 16.063 6.024 20.078 14.055l299.169 457.788c6.024 12.047 6.024 24.094 2.008 34.133z" />
<glyph unicode="&#xe91c;" glyph-name="protection" d="M952.513 679.849v0c0 11.592 0 21.253 0 32.845 0 56.030-46.37 104.332-102.4 106.264-119.789 7.728-210.596 46.37-289.811 123.653v0c-25.117 23.185-63.758 23.185-88.875 0v0c-77.283-75.351-170.023-113.992-287.879-121.721-56.030-3.864-102.4-50.234-102.4-106.264 0-11.592 0-21.253 0-32.845v-1.932c-1.932-119.789-5.796-270.491 44.438-407.668 27.049-75.351 69.555-141.042 123.653-193.208 61.826-61.826 144.906-110.128 243.442-142.974 3.864-1.932 5.796-1.932 9.66-1.932s9.66-1.932 13.525-1.932c5.796 0 9.66 0 15.457 1.932 3.864 0 7.728 1.932 9.66 1.932 98.536 34.777 179.683 83.079 243.442 144.906 54.098 54.098 96.604 117.857 123.653 193.208 50.234 135.245 46.37 285.947 44.438 405.736zM850.113 293.434c-52.166-142.974-160.362-241.509-330.385-301.404 0 0-1.932 0-1.932 0-1.932 0-3.864 0-5.796 0 0 0-1.932 0-1.932 0-168.091 59.894-276.287 158.43-330.385 301.404-46.37 125.585-42.506 262.762-40.574 384.483v0c0 9.66 0 21.253 0 32.845 0 25.117 21.253 46.37 46.37 48.302 67.623 3.864 125.585 17.389 179.683 38.642 54.098 23.185 102.4 54.098 146.838 98.536 1.932 1.932 5.796 1.932 7.728 0 44.438-42.506 92.74-75.351 146.838-98.536s112.060-36.709 179.683-38.642c25.117-1.932 44.438-23.185 46.37-48.302 0-11.592 0-23.185 0-32.845 1.932-119.789 3.864-258.898-42.506-384.483zM515.864 701.102c-141.042 0-256.966-115.925-256.966-256.966s115.925-256.966 256.966-256.966c141.042 1.932 256.966 115.925 256.966 258.898s-115.925 255.034-256.966 255.034zM515.864 248.996c-108.196 0-195.14 88.875-195.14 195.14s88.875 195.14 195.14 195.14c108.196 0 195.14-88.875 195.14-195.14s-86.943-195.14-195.14-195.14zM589.283 525.283l-119.789-119.789-30.913 32.845c-11.592 11.592-30.913 11.592-42.506 0s-11.592-30.913 0-42.506l54.098-54.098c5.796-5.796 13.525-9.66 21.253-9.66s15.457 3.864 21.253 9.66l141.042 141.042c11.592 11.592 11.592 30.913 0 42.506-13.525 11.592-32.845 11.592-44.438 0z" />
<glyph unicode="&#xe91d;" glyph-name="question" d="M512 960c-283.106 0-512-228.894-512-512s228.894-512 512-512c283.106 0 512 228.894 512 512s-228.894 512-512 512zM512 4.267c-244.957 0-443.733 198.776-443.733 443.733s198.776 443.733 443.733 443.733c244.957 0 443.733-198.776 443.733-443.733s-198.776-443.733-443.733-443.733zM499.953 335.561c-24.094 0-44.173-20.078-44.173-44.173s20.078-44.173 44.173-44.173c24.094 0 44.173 20.078 44.173 44.173s-20.078 44.173-44.173 44.173zM505.976 672.878c-78.306 0-114.447-46.18-114.447-78.306 0-22.086 18.071-32.125 34.133-32.125 32.125 0 18.071 44.173 78.306 44.173 28.11 0 52.204-12.047 52.204-40.157 0-32.125-32.125-48.188-52.204-66.259-16.063-14.055-38.149-38.149-38.149-88.345 0-30.118 8.031-38.149 32.125-38.149 28.11 0 34.133 12.047 34.133 24.094 0 30.118 0 48.188 32.125 72.282 16.063 12.047 64.251 52.204 64.251 106.416 2.008 54.212-48.188 96.376-122.478 96.376z" />
<glyph unicode="&#xe91e;" glyph-name="right" d="M327.18-41.522l442.068 462.049c17.483 17.483 17.483 44.956 0 62.439l-442.068 462.049c-17.483 19.98-44.956 19.98-62.439 2.498s-17.483-44.956-2.498-64.937l412.098-429.58-412.098-432.078c-7.493-7.493-12.488-19.98-12.488-29.971 0-12.488 4.995-24.976 14.985-32.468 7.493-7.493 19.98-12.488 29.971-12.488 12.488 0 24.976 4.995 32.468 12.488z" />
<glyph unicode="&#xe91f;" glyph-name="right_2" d="M0 383.462h783.059l-361.412-361.412 86.050-86.050 516.303 516.303-507.697 507.697-86.050-86.050 361.412-361.412h-791.664v-129.076z" />
<glyph unicode="&#xe920;" glyph-name="right_3" d="M558.933 861.867l-34.133-34.133c-8.533-8.533-17.067-25.6-17.067-38.4 0-17.067 4.267-29.867 17.067-38.4l217.6-217.6h-686.933c-29.867 0-55.467-25.6-55.467-55.467v-46.933c0-29.867 25.6-55.467 55.467-55.467v0h686.933l-213.333-217.6c-8.533-8.533-17.067-25.6-17.067-38.4 0-17.067 4.267-29.867 17.067-38.4l34.133-34.133c8.533-8.533 25.6-17.067 38.4-17.067 17.067 0 29.867 4.267 38.4 17.067l371.2 371.2c8.533 8.533 17.067 25.6 17.067 38.4 0 17.067-4.267 29.867-17.067 38.4l-371.2 371.2c-8.533 8.533-25.6 17.067-38.4 17.067-17.067-8.533-29.867-12.8-42.667-21.333z" />
<glyph unicode="&#xe921;" glyph-name="search" d="M1017.8 2.6l-297.6 297.4c56.4 69.6 90.4 158.2 90.4 254.6 0 223.6-181.8 405.4-405.2 405.4s-405.4-181.8-405.4-405.4 181.8-405.4 405.4-405.4c96.4 0 185 34 254.6 90.4l297.4-297.4c8.4-8.4 21.8-8.4 30.2 0l30.2 30.2c8.2 8.4 8.2 21.8 0 30.2zM405.4 234.6c-176.4 0-320 143.6-320 320s143.6 320 320 320 320-143.6 320-320-143.6-320-320-320z" />
<glyph unicode="&#xe922;" glyph-name="shop_bag" d="M917.4 115.6l-45.8 576.2c-2.8 37.2-34.2 66.2-71.4 66.2h-90.4v4c0 109.2-88.8 198-198 198s-198-88.8-198-198v-4h-90c-37.2 0-68.6-29-71.4-66.2l-46-576.4c-3.6-46.2 12.4-92 44-126 31.4-34 76-53.4 122.4-53.4h478.4c46.2 0 90.8 19.4 122.4 53.4 31.4 34 47.4 80 43.8 126.2zM374 762c0 76 61.8 138 138 138 76 0 138-61.8 138-138v-4h-276v4zM829.6 30.2c-20.4-22-48.2-34.2-78.4-34.2h-478.4c-30 0-57.8 12.2-78.4 34.2-20.4 22-30.4 50.8-28.2 80.6l45.8 576.4c0.4 6 5.6 10.8 11.6 10.8h90.4v-73.8c0-16.6 13.4-30 30-30s30 13.4 30 30v73.8h276v-73.8c0-16.6 13.4-30 30-30s30 13.4 30 30v73.8h90.4c6 0 11.2-4.8 11.6-10.8l45.8-576.2c2.2-30-7.8-58.8-28.2-80.8zM647 451.4c-11.8 11.8-30.6 11.8-42.4 0l-134-134-51.4 51.4c-11.8 11.8-30.6 11.8-42.4 0s-11.8-30.8 0-42.4l72.6-72.6c5.8-5.8 13.6-8.8 21.2-8.8s15.4 3 21.2 8.8l155.2 155.2c11.8 11.8 11.8 30.8 0 42.4z" />
<glyph unicode="&#xe923;" glyph-name="statistics" d="M933.888 734.72c-12.288 18.432-26.624 36.864-40.96 53.248l-47.104-43.008c12.288-14.336 24.576-30.72 36.864-47.104l51.2 36.864zM843.776 837.12c-16.384 14.336-34.816 28.672-55.296 40.96l-34.816-53.248c16.384-10.24 32.768-22.528 47.104-34.816l43.008 47.104zM696.32 503.296l6.144-22.528h321.536l-4.096 36.864c-8.192 55.296-24.576 110.592-49.152 159.744l-57.344-28.672c16.384-32.768 28.672-67.584 36.864-104.448h-200.704c-26.624 63.488-77.824 114.688-141.312 141.312v200.704c32.768-8.192 65.536-18.432 96.256-32.768l26.624 57.344c-47.104 22.528-98.304 36.864-149.504 45.056l-38.912 4.096v-321.536l22.528-6.144c63.488-18.432 112.64-67.584 131.072-129.024zM696.32 394.752c-30.72-102.4-137.216-159.744-239.616-129.024s-159.744 137.216-129.024 239.616c18.432 61.44 67.584 110.592 129.024 129.024l22.528 6.144v319.488l-36.864-4.096c-278.528-38.912-475.136-294.912-438.272-575.488s294.912-477.184 575.488-438.272c229.376 30.72 407.552 210.944 438.272 438.272l4.096 36.864h-319.488l-6.144-22.528zM948.224 351.744c-53.248-241.664-290.816-393.216-532.48-342.016-241.664 55.296-393.216 292.864-342.016 534.528 38.912 169.984 172.032 303.104 342.016 342.016v-200.704c-131.072-53.248-194.56-202.752-141.312-333.824s202.752-194.56 333.824-141.312c63.488 26.624 114.688 77.824 141.312 141.312h198.656z" />
<glyph unicode="&#xe924;" glyph-name="inicio" d="M750.147 509.712c-5.001 12.402-19.004 18.404-31.406 13.603-12.402-5.001-18.404-19.004-13.603-31.406 12.202-31.006 18.604-63.812 18.604-97.619 0-146.229-119.023-265.252-265.252-265.252s-265.452 119.023-265.452 265.252 119.023 265.452 265.452 265.452c33.807 0 66.613-6.201 97.819-18.604 12.402-5.001 26.405 1.2 31.406 13.603s-1.2 26.405-13.603 31.406c-36.807 14.603-75.615 22.004-115.623 22.004-173.034 0-313.661-140.627-313.661-313.661s140.627-313.661 313.661-313.661c173.034 0 313.661 140.627 313.661 313.661 0 39.808-7.401 78.615-22.004 115.223zM899.176 520.714c-3.601 12.803-17.003 20.204-29.806 16.603s-20.204-17.003-16.603-29.806c10.402-36.607 15.803-74.615 15.803-113.022 0-226.044-184.036-410.080-410.080-410.080s-410.080 184.036-410.080 410.080 184.036 410.080 410.080 410.080c38.408 0 76.615-5.401 113.222-15.803 12.803-3.601 26.205 3.801 29.806 16.603s-3.801 26.205-16.603 29.806c-41.008 11.802-83.616 17.803-126.625 17.803-252.649-0.2-458.29-205.84-458.29-458.49s205.64-458.49 458.49-458.49c252.849 0 458.49 205.64 458.49 458.49-0.2 42.808-6.001 85.417-17.803 126.225zM626.722 409.292c-1.2 13.203-13.003 23.004-26.205 22.004-13.203-1.2-23.205-13.003-22.004-26.205 0.4-3.401 0.4-7.001 0.4-10.402 0-66.413-54.011-120.624-120.624-120.624-66.413 0-120.624 54.011-120.624 120.624 0 66.413 54.011 120.624 120.624 120.624 3.801 0 7.401-0.2 10.802-0.4 13.203-1.2 25.005 8.602 26.205 21.804s-8.602 25.005-21.804 26.205c-5.001 0.4-10.002 0.6-15.203 0.6-93.218 0-168.833-75.815-168.833-168.833 0-93.218 75.815-168.833 168.833-168.833 93.218 0 168.833 75.815 168.833 168.833 0.2 4.601 0 9.602-0.4 14.603zM1020.399 797.568c-7.601 18.204-25.005 29.806-44.609 29.806h-84.216v84.216c0 19.604-11.802 37.207-29.806 44.609-18.204 7.601-38.808 3.401-52.61-10.402l-140.828-140.828c-13.603-13.603-21.204-31.806-21.204-51.21v-136.827l-196.438-196.438c-9.402-9.402-9.402-24.805 0-34.207 4.801-4.801 10.802-7.001 17.003-7.001s12.402 2.4 17.003 7.001l196.438 196.438h136.827c19.404 0 37.607 7.601 51.21 21.204l140.828 140.828c13.803 14.003 18.004 34.607 10.402 52.81zM695.336 753.76c0 6.401 2.601 12.602 7.001 17.003l140.828 140.828v-98.419l-147.829-147.829v88.417zM835.163 638.337c-4.401-4.401-10.802-7.001-17.003-7.001h-88.417l147.829 147.829h98.419l-140.828-140.828z" />
<glyph unicode="&#xe925;" glyph-name="tip" d="M891.653 580.83c0 209.147-170.264 379.411-379.411 379.411s-379.411-170.264-379.411-379.411c0-128.242 65.449-248.030 172.196-317.826v-119.547c0-114.234 92.981-206.974 206.974-206.974s206.974 92.981 206.974 206.974v67.14c0 0 0 52.408 0 52.408 106.989 69.555 172.679 189.585 172.679 317.826zM646.279 143.457c0-73.902-60.136-134.038-134.038-134.038s-134.038 60.136-134.038 134.038v30.672h267.834v-30.672zM664.392 314.928c-11.351-6.521-18.355-18.596-18.355-31.638v-36.226h-97.328v189.102c47.577 15.457 81.872 60.136 81.872 112.543 0 20.287-16.423 36.468-36.468 36.468s-36.468-16.423-36.468-36.468c0-24.875-20.287-45.404-45.404-45.404-24.875 0-45.404 20.287-45.404 45.404 0 20.287-16.423 36.468-36.468 36.468s-36.468-16.181-36.468-36.468c0-52.649 34.536-97.087 81.872-112.543v-189.102h-97.328v36.226c0 13.042-7.004 25.117-18.355 31.638-94.913 54.581-153.842 156.257-153.842 265.66-0.242 169.057 137.177 306.234 305.992 306.234s306.234-137.419 306.234-306.234c0-109.162-58.928-211.079-154.083-265.66z" />
<glyph unicode="&#xe926;" glyph-name="trash" d="M831.6 843.8v0h-168v28.4c0 48.4-39.4 87.8-87.8 87.8h-127.6c-48.4 0-87.8-39.4-87.8-87.8v-28.4h-168c-58.6 0-106.4-47.8-106.4-106.4v-61c0-11 9-20 20-20h56.8l50.8-602.2c2.8-32.4 17.4-62.2 41.2-84.2s55-34 87.4-34h339.6c32.4 0 63.4 12 87.4 34 23.8 22 38.6 51.8 41.2 84.2l50.8 602.2h56.8c11 0 20 9 20 20v61c0 58.6-47.8 106.4-106.4 106.4zM400.4 872.2c0 26.4 21.4 47.8 47.8 47.8h127.6c26.4 0 47.8-21.4 47.8-47.8v-28.4h-223.2v28.4zM898 696.4v0h-297.4c-11 0-20-9-20-20s9-20 20-20h220.4l-50.4-598.8c-3.8-45.8-42.8-81.6-88.8-81.6h-339.6c-46 0-85 35.8-88.8 81.6l-50.4 598.8h221.6c11 0 20 9 20 20s-9 20-20 20h-298.6v41c0 36.6 29.8 66.4 66.4 66.4h639.2c36.6 0 66.4-29.8 66.4-66.4v-41zM398 501.2c-7.8 7.8-20.4 7.8-28.2 0s-7.8-20.4 0-28.2l114-114-114-114c-7.8-7.8-7.8-20.4 0-28.2 4-4 9-5.8 14.2-5.8s10.2 2 14.2 5.8l114 114 114-114c4-4 9-5.8 14.2-5.8s10.2 2 14.2 5.8c7.8 7.8 7.8 20.4 0 28.2l-114 114 114 114c7.8 7.8 7.8 20.4 0 28.2s-20.4 7.8-28.2 0l-114-114-114.4 114zM521.6 658c10 4.2 15 16 10.8 26.2-4.2 10-16 15-26.2 10.8s-15-16-10.8-26.2c4.4-10.2 16.2-15 26.2-10.8z" />
<glyph unicode="&#xe927;" glyph-name="filtro-settings" d="M725.4 746.6c0 70.6 57.4 128 128 128s128-57.4 128-128-57.4-128-128-128-128 57.4-128 128zM85.4 704h512c23.6 0 42.6 19.2 42.6 42.6s-19.2 42.6-42.6 42.6h-512c-23.6 0-42.6-19.2-42.6-42.6s19-42.6 42.6-42.6zM341.4 576c-54.2-0.2-102.2-34.4-120.4-85.4h-135.6c-23.6 0-42.6-19.2-42.6-42.6 0-23.6 19.2-42.6 42.6-42.6h135.6c23.6-66.6 96.6-101.6 163.4-78s101.6 96.6 78 163.4c-18.2 51.2-66.6 85.4-121 85.2zM938.6 490.6h-341.2c-23.6 0-42.6-19.2-42.6-42.6 0-23.6 19.2-42.6 42.6-42.6h341.4c23.6 0 42.6 19.2 42.6 42.6 0 23.6-19.2 42.6-42.8 42.6zM426.6 192h-341.2c-23.6 0-42.6-19.2-42.6-42.6s19.2-42.6 42.6-42.6h341.4c23.6 0 42.6 19.2 42.6 42.6s-19.2 42.6-42.8 42.6zM938.6 192h-135.6c-23.6 66.6-96.6 101.6-163.4 78-66.6-23.6-101.6-96.6-78-163.4s96.6-101.6 163.4-78c36.4 12.8 65.2 41.6 78 78h135.6c23.6 0 42.6 19.2 42.6 42.6s-19 42.8-42.6 42.8z" />
<glyph unicode="&#xe928;" glyph-name="up" d="M1001.522 255.688l-462.049 442.068c-17.483 17.483-44.956 17.483-62.439 0l-462.049-442.068c-17.483-17.483-17.483-44.956-2.498-62.439 17.483-17.483 44.956-17.483 64.937-2.498l429.58 412.098 432.078-412.098c7.493-7.493 19.98-12.488 29.971-12.488 12.488 0 24.976 4.995 32.468 14.985 7.493 7.493 12.488 19.98 12.488 29.971 0 12.488-4.995 24.976-12.488 32.468z" />
<glyph unicode="&#xe929;" glyph-name="up_2" d="M576.538-64v783.059l361.412-361.412 86.050 86.050-507.697 516.303-516.303-516.303 86.050-86.050 361.412 361.412v-783.059h129.076z" />
<glyph unicode="&#xe92a;" glyph-name="up_3" d="M98.133 494.933l34.133-34.133c8.533-8.533 25.6-17.067 38.4-17.067 17.067 0 29.867 4.267 38.4 17.067l217.6 217.6v-686.933c0-29.867 25.6-55.467 55.467-55.467h46.933c29.867 0 55.467 25.6 55.467 55.467v0 686.933l217.6-213.333c8.533-8.533 25.6-17.067 38.4-17.067 17.067 0 29.867 4.267 38.4 17.067l34.133 34.133c8.533 8.533 17.067 25.6 17.067 38.4 0 17.067-4.267 29.867-17.067 38.4l-371.2 371.2c-8.533 8.533-25.6 17.067-38.4 17.067-17.067 0-29.867-4.267-38.4-17.067l-371.2-371.2c-8.533-8.533-17.067-25.6-17.067-38.4 8.533-17.067 12.8-34.133 21.333-42.667z" />
<glyph unicode="&#xe92b;" glyph-name="varios" d="M188.578 960h-129.774c-32.444 0-58.804-26.36-58.804-58.804v-129.774c0-32.444 26.36-58.804 58.804-58.804h129.774c32.444 0 58.804 26.36 58.804 58.804v129.774c0 32.444-26.36 58.804-58.804 58.804zM194.661 767.366h-141.941v141.941h141.941v-141.941zM577.901 960h-129.774c-32.444 0-58.804-26.36-58.804-58.804v-129.774c0-32.444 26.36-58.804 58.804-58.804h129.774c32.444 0 58.804 26.36 58.804 58.804v129.774c0 32.444-26.36 58.804-58.804 58.804zM583.984 767.366h-141.941v141.941h141.941v-141.941zM965.196 960h-129.774c-32.444 0-58.804-26.36-58.804-58.804v-129.774c0-32.444 26.36-58.804 58.804-58.804h129.774c32.444 0 58.804 26.36 58.804 58.804v129.774c0 32.444-26.36 58.804-58.804 58.804zM973.307 767.366h-141.941v141.941h141.941v-141.941zM188.578 572.705h-129.774c-32.444 0-58.804-26.36-58.804-58.804v-129.774c0-32.444 26.36-58.804 58.804-58.804h129.774c32.444 0 58.804 26.36 58.804 58.804v129.774c0 32.444-26.36 58.804-58.804 58.804zM194.661 378.044h-141.941v141.941h141.941v-141.941zM577.901 572.705h-129.774c-32.444 0-58.804-26.36-58.804-58.804v-129.774c0-32.444 26.36-58.804 58.804-58.804h129.774c32.444 0 58.804 26.36 58.804 58.804v129.774c0 32.444-26.36 58.804-58.804 58.804zM583.984 378.044h-141.941v141.941h141.941v-141.941zM965.196 572.705h-129.774c-32.444 0-58.804-26.36-58.804-58.804v-129.774c0-32.444 26.36-58.804 58.804-58.804h129.774c32.444 0 58.804 26.36 58.804 58.804v129.774c0 32.444-26.36 58.804-58.804 58.804zM973.307 378.044h-141.941v141.941h141.941v-141.941zM188.578 183.382h-129.774c-32.444 0-58.804-26.36-58.804-58.804v-129.774c0-32.444 26.36-58.804 58.804-58.804h129.774c32.444 0 58.804 26.36 58.804 58.804v129.774c0 32.444-26.36 58.804-58.804 58.804zM194.661-11.279h-141.941v141.941h141.941v-141.941zM577.901 183.382h-129.774c-32.444 0-58.804-26.36-58.804-58.804v-129.774c0-32.444 26.36-58.804 58.804-58.804h129.774c32.444 0 58.804 26.36 58.804 58.804v129.774c0 32.444-26.36 58.804-58.804 58.804zM583.984-11.279h-141.941v141.941h141.941v-141.941zM965.196 183.382h-129.774c-32.444 0-58.804-26.36-58.804-58.804v-129.774c0-32.444 26.36-58.804 58.804-58.804h129.774c32.444 0 58.804 26.36 58.804 58.804v129.774c0 32.444-26.36 58.804-58.804 58.804zM973.307-11.279h-141.941v141.941h141.941v-141.941z" />
<glyph unicode="&#xe92c;" glyph-name="viajes" d="M923.2 729.6h-256v110.4c0 33.6-27.2 60.8-60.8 60.8h-184c-33.6 0-60.8-27.2-60.8-60.8v-110.4h-256c-56 0-102.4-46.4-102.4-102.4v-523.2c0-56 46.4-102.4 102.4-102.4h816c56 0 102.4 46.4 102.4 102.4v524.8c1.6 56-44.8 100.8-100.8 100.8zM401.6 840c0 11.2 9.6 20.8 20.8 20.8h184c11.2 0 20.8-9.6 20.8-20.8v-110.4h-224l-1.6 110.4zM168 43.2h-60.8c-33.6 0-60.8 27.2-60.8 60.8v524.8c0 33.6 27.2 60.8 60.8 60.8h60.8v-646.4zM984 104c0-33.6-27.2-60.8-60.8-60.8h-60.8v438.4c0 11.2-9.6 20.8-20.8 20.8s-20.8-9.6-20.8-20.8v-438.4h-612.8v646.4h715.2c33.6 0 60.8-27.2 60.8-60.8v-524.8zM841.6 625.6c-11.2 0-20.8-9.6-20.8-20.8v-30.4c0-11.2 9.6-20.8 20.8-20.8s20.8 9.6 20.8 20.8v30.4c-1.6 11.2-9.6 20.8-20.8 20.8z" />
<glyph unicode="&#xe92d;" glyph-name="warning" d="M874.045 810.045c-96.707 96.707-225.276 149.955-362.045 149.955s-265.338-53.248-362.045-149.955c-96.707-96.707-149.955-225.276-149.955-362.045s53.248-265.338 149.955-362.045c96.707-96.707 225.276-149.955 362.045-149.955s265.338 53.248 362.045 149.955c96.707 96.707 149.955 225.276 149.955 362.045 0.036 136.769-53.248 265.338-149.955 362.045zM436.21 797.185c7.911 8.2 18.604 12.788 30.092 12.788h92.552c11.488 0 22.181-4.624 30.092-12.824s12.030-19.146 11.596-30.634l-15.281-346.186c-0.867-23.445-20.664-42.7-44.109-42.7h-58.161c-23.481 0-43.242 19.255-44.036 42.736l-14.342 346.258c-0.47 11.488 3.685 22.361 11.596 30.562zM513.12 72.95c-53.682 0-94.178 42.375-94.178 98.585 0 56.825 39.99 99.705 93.058 99.705 54.802 0 93.058-41.002 93.058-99.705 0-58.017-37.787-98.585-91.938-98.585z" />
<glyph unicode="&#xe92e;" glyph-name="youtube" d="M756.8 960h-489.8c-147.2 0-267-119.8-267-267v-490c0-147.2 119.8-267 267-267h490c147.2 0 267 119.8 266.8 267.2v489.8c0 147.2-119.8 267-267 267zM950.8 203c0-107-87-194-194-194h-489.8c-107 0-194 87-194 194v489.8c0 107 87 194 194 194v0.2h489.8c107 0 194-87 194-194v-490zM670.6 449.8l-261.8 137.2c-4.4 2.4-9.8 2.2-14.2-0.4s-7-7.2-7-12.4v-272.6c0-5 2.6-9.6 7-12.2 2.2-1.4 4.8-2 7.4-2 2.2 0 4.6 0.6 6.6 1.6l261.8 135.4c4.8 2.4 7.8 7.4 7.8 12.8s-2.8 10-7.6 12.6z" />
<glyph unicode="&#xe92f;" glyph-name="check" d="M512 864c-229.76 0-416-186.24-416-416s186.24-416 416-416 416 186.24 416 416-186.24 416-416 416zM744.256 566.176l-303.552-303.52c-7.616-7.584-19.936-7.584-27.552 0l-6.112 6.112-0.032-0.032-167.008 168.192c-7.616 7.616-7.616 19.968 0 27.584l41.408 41.376c7.616 7.616 19.968 7.616 27.584 0l118.048-118.912 248.192 248.192c7.616 7.616 19.968 7.616 27.584 0l41.408-41.408c7.648-7.584 7.648-19.936 0.032-27.584z" />
<glyph unicode="&#xe930;" glyph-name="check_linear" d="M512 84.667q140 0 241 101t101 241-101 241-241 101-241-101-101-241 101-241 241-101zM512 852.667q176 0 301-125t125-301-125-301-301-125-301 125-125 301 125 301 301 125zM708 614.667l60-60-342-342-212 214 60 60 152-152z" />
<glyph unicode="&#xe931;" glyph-name="bomba-cta" d="M786.6 546.2l63 63c52.4 52.4 53.8 138 2.8 190.6-25.4 26.2-59.4 40.8-96 41.2s-70.8-13.8-96.6-39.6l-32.4-32.4c-11.4-11.4-26.4-17.6-42.4-17.6s-31.2 6.2-42.4 17.6l-63.6 63.6-42.4-42.4 63.6-63.6c46.8-46.8 123-46.8 169.8 0l32.4 32.4c14.2 14.2 33 22 53 22 0.2 0 0.4 0 0.6 0 20.2-0.2 39.2-8.2 53.4-22.8 28.2-29.2 27.4-77-2.2-106.4l-63-63-63.6 63.6-57.6-57.6c-59.4 27.2-126.4 37-191.4 28.2-75-10.4-142.8-44.2-196.6-97.8-134.6-134.6-134.6-353.4 0-488 67.2-67.2 155.6-101 244-101s176.8 33.6 244 101c53.6 53.6 87.4 121.6 97.8 196.6 9 65-1 132-28.2 191.4l57.6 57.6-63.6 63.4zM351.8 875l42.4 42.4 42.4-42.4-42.4-42.4-42.4 42.4zM479 917.6l42.4 42.4 42.6-42.4-42.4-42.4-42.6 42.4zM309.4 747.8l42.4 42.4 42.4-42.4-42.4-42.4-42.4 42.4z" />
<glyph unicode="&#xe932;" glyph-name="cross_2" d="M681.448 423.741l300.861 300.861c47.665 47.665 47.665 124.83 0 172.373-47.543 47.665-124.83 47.665-172.373 0l-300.861-300.983-300.983 300.983c-47.543 47.665-124.83 47.665-172.373 0-47.665-47.543-47.665-124.83 0-172.373l300.861-300.861-300.861-300.983c-47.665-47.543-47.665-124.83 0-172.373 23.771-23.771 54.979-35.718 86.187-35.718s62.415 11.947 86.187 35.718l300.983 300.861 300.861-300.861c23.771-23.893 54.979-35.718 86.187-35.718s62.415 11.825 86.187 35.718c47.665 47.543 47.665 124.83 0 172.373l-300.861 300.983z" />
<glyph unicode="&#xe933;" glyph-name="warning_2" d="M1024 426.667c0-282.99-228.99-512-512-512-282.99 0-512 228.99-512 512 0 282.99 228.99 512 512 512 282.99 0 512-228.99 512-512zM944 426.667c0 238.77-193.21 432-432 432-238.77 0-432-193.21-432-432 0-238.77 193.21-432 432-432 238.77 0 432 193.21 432 432zM552 640.917v-257.59c0-22.090-17.91-40-40-40s-40 17.91-40 40v257.59c0 22.090 17.91 40 40 40s40-17.91 40-40zM512 294.347c29.82 0 54-24.18 54-54s-24.18-54-54-54c-29.82 0-54 24.18-54 54s24.18 54 54 54z" />
<glyph unicode="&#xe934;" glyph-name="order" horiz-adv-x="1023" d="M462.207 718.497l-212.914 212.914c-1.956 1.956-4.342 3.533-6.936 4.641-5.2 2.166-11.078 2.166-16.268 0-2.595-1.108-4.98-2.685-6.936-4.641l-212.924-212.874c-8.304-8.304-8.304-21.807 0-30.111s21.807-8.304 30.111 0l176.585 176.555v-928.027c0-11.747 9.541-21.288 21.298-21.288 11.747 0 21.288 9.541 21.288 21.288v928.027l176.555-176.555c4.172-4.172 9.621-6.258 15.071-6.258s10.899 2.086 15.081 6.218c8.294 8.304 8.294 21.807-0.010 30.111zM1015.796 164.948c-8.304 8.304-21.797 8.304-30.101 0l-176.595-176.595v928.027c0 11.747-9.541 21.288-21.298 21.288-11.747 0-21.288-9.541-21.288-21.288v-928.027l-176.555 176.555c-8.294 8.304-21.797 8.304-30.101 0s-8.304-21.807 0-30.111l212.874-212.874c1.956-1.956 4.342-3.533 6.936-4.641 2.605-1.058 5.37-1.617 8.134-1.617 2.775 0 5.539 0.549 8.134 1.617 2.645 1.068 4.99 2.645 6.946 4.641l212.874 212.874c8.344 8.354 8.344 21.807 0.040 30.151z" />
<glyph unicode="&#xe935;" glyph-name="chat-burbuja" d="M512 928c-264.8 0-480-215.2-480-480 0.2-84.8 23.2-167.8 65.8-240.8l-65-195.2c-4.2-12.6 7.8-24.4 20.2-20.2l186.6 62.2c80-55.4 174.8-85.8 272.2-85.8 265 0 480 215 480 480 0.2 264.8-214.8 479.8-479.8 479.8v0zM351.6 496c26.4 0 48-21.6 48-48s-21.6-48-48-48-48 21.6-48 48c0 26.4 21.8 48 48 48v0zM512 496c26.4 0 48-21.6 48-48s-21.6-48-48-48c-26.4 0-48 21.6-48 48s21.8 48 48 48v0zM671.6 496c26.4 0 48-21.6 48-48s-21.6-48-48-48-48 21.6-48 48c0 26.4 21.8 48 48 48v0z" />
<glyph unicode="&#xe936;" glyph-name="info_2" horiz-adv-x="1023" d="M28.804 551.118c15.904 0 28.804 12.9 28.804 28.804v236.168c0 40.326 38.879 64.803 79.205 64.803h236.168c15.904 0 28.804 12.9 28.804 28.804s-12.9 28.804-28.804 28.804h-236.168c-72.011 0-136.814-50.401-136.814-122.411v-236.168c0-15.904 12.9-28.804 28.804-28.804zM911.87 938.502c-3.942 0.193-7.883 0.193-11.825 0h-236.168c-15.904 0-28.804-12.9-28.804-28.804s12.9-28.804 28.804-28.804h236.168c33.311 2.481 62.322-22.52 64.803-55.831 0.221-2.991 0.221-5.981 0-8.972v-236.168c0-15.918 12.9-28.804 28.804-28.804s28.804 12.886 28.804 28.804v236.168c3.266 64.348-46.252 119.145-110.586 122.411zM993.652 317.831c-15.904 0-28.804-12.9-28.804-28.804v-236.168c0-40.326-24.477-79.205-64.803-79.205h-236.168c-15.904 0-28.804-12.9-28.804-28.804s12.9-28.804 28.804-28.804h236.168c72.011 0 122.411 64.803 122.411 136.814v236.168c0 15.904-12.9 28.804-28.804 28.804zM372.981-26.346h-236.168c-42.821 2.164-77.041 36.384-79.205 79.191v236.182c0 15.904-12.9 28.804-28.804 28.804s-28.804-12.9-28.804-28.804v-236.182c2.246-74.602 62.198-134.553 136.814-136.8h236.168c15.904 0 28.804 12.886 28.804 28.804 0 15.904-12.9 28.804-28.804 28.804zM518.422 240.059c-107.362 0-194.408 87.047-194.408 194.408 0 107.375 87.047 194.422 194.408 194.422 107.375 0 194.408-87.047 194.408-194.422-0.772-107.045-87.364-193.623-194.408-194.408zM655.236 434.468c0 75.567-61.247 136.814-136.814 136.814-75.553 0-136.8-61.247-136.8-136.814 0-75.553 61.247-136.8 136.8-136.8 75.236 0.772 136.028 61.578 136.814 136.8z" />
<glyph unicode="&#xe937;" glyph-name="checkbox_checked" d="M837.568 958.624h-651.136c-102.976 0-186.432-83.488-186.432-186.432v-648.352c0-102.976 83.456-186.432 186.432-186.432h651.136c102.944 0 186.432 83.488 186.432 186.432v648.352c0.032 102.976-83.456 186.432-186.432 186.432zM843.776 535.072l-352.224-352.224c-14.944-14.976-35.2-23.36-56.352-23.36s-41.408 8.416-56.352 23.36l-174.56 174.56c-31.104 31.136-31.104 81.568 0.032 112.704 14.944 14.944 35.2 23.328 56.32 23.328s41.376-8.384 56.32-23.328l104.032-104.064c3.776-3.776 8.896-5.92 14.24-5.92s10.464 2.144 14.24 5.92l281.632 281.664c14.976 14.944 35.2 23.36 56.352 23.36 21.12-0.032 41.376-8.416 56.32-23.36 31.104-31.136 31.104-81.568-0.032-112.672z" />
<glyph unicode="&#xe938;" glyph-name="checkbox" d="M910.208 960h-796.448c-62.464 0-113.792-51.296-113.792-113.792v-796.448c0-62.464 51.296-113.792 113.792-113.792h796.448c62.464 0 113.792 51.328 113.792 113.792v796.448c0 62.464-51.328 113.792-113.792 113.792z" />
<glyph unicode="&#xe939;" glyph-name="chat-send" d="M55.467 810.667c-8.533 29.867 4.267 59.733 25.6 76.8s55.467 21.333 85.333 8.533l759.467-379.733c25.6-12.8 42.667-42.667 42.667-68.267s-17.067-55.467-42.667-68.267l-759.467-384c-25.6-12.8-59.733-8.533-85.333 8.533s-34.133 51.2-25.6 81.067l81.067 320 460.8 42.667-460.8 42.667c0 0-81.067 320-81.067 320z" />
<glyph unicode="&#xe93a;" glyph-name="gift" horiz-adv-x="1102" d="M462.929 293.419c-10.357-10.378-10.357-27.271 0.011-37.66 5.184-5.173 11.996-7.76 18.819-7.76 6.812 0 13.625 2.587 18.809 7.76l0.011 0.011c10.357 10.378 10.357 27.271-0.011 37.66-10.368 10.346-27.25 10.346-37.639-0.011zM499.248 755.816v-37.788c0-73.372 59.684-133.056 133.056-133.056s133.056 59.684 133.056 133.056v37.788c12.135 2.47 21.289 13.22 21.289 26.079 0 14.668-11.932 26.611-26.611 26.611h-42.578c-14.668 0-26.611-11.943-26.611-26.611 0-12.859 9.165-23.609 21.289-26.079v-37.788c0-44.026-35.808-79.834-79.834-79.834s-79.834 35.808-79.834 79.834v37.788c12.124 2.47 21.289 13.22 21.289 26.079 0 14.668-11.943 26.611-26.611 26.611h-42.578c-14.679 0-26.611-11.943-26.611-26.611 0-12.859 9.154-23.609 21.289-26.079zM1080.384 403.441l-190.696-228.995c-0.585-0.703-1.224-1.394-1.895-2.044-36.947-35.989-85.72-55.809-137.335-55.809h-280.291c-24.418 0-47.56-9.346-65.166-26.313l-21.619-20.874c2.299-30.326-8.686-59.928-30.347-81.579l-65.368-65.368c-5.035-5.024-11.72-7.792-18.819-7.792s-13.774 2.757-18.798 7.77v0.011l-241.183 240.842c-5.045 5.045-7.813 11.741-7.802 18.862s2.8 13.806 7.834 18.83l65.708 65.378c19.99 20.022 47.357 31.039 75.416 30.571 35.765 73.575 99.813 123.859 181.031 142.136v472.701c0 14.668 11.932 26.611 26.611 26.611h547.148c14.679 0 26.611-11.943 26.611-26.611v-402.532l11.347 11.73c32.263 37.298 89.137 41.801 126.85 10.006 38.129-32.221 42.961-89.435 10.762-127.532zM849.718 209.615l189.887 228.026c6.472 7.664 9.58 17.351 8.75 27.292-0.82 9.931-5.461 18.937-13.050 25.366-15.69 13.21-39.257 11.219-52.531-4.449-0.351-0.426-0.756-0.862-1.15-1.277-7.281-7.536-119.868-123.976-135.856-140.475 0.33-3.172 0.49-6.291 0.49-9.293 0-49.891-40.587-90.478-90.478-90.478h-185.214c-14.679 0-26.611 11.943-26.611 26.611 0 14.679 11.932 26.611 26.611 26.611h185.214c20.544 0 37.256 16.712 37.256 37.256s-16.712 37.256-37.256 37.256h-246.835c-7.526 0-15.030 1.49-22.311 4.428-38.725 15.786-80.834 20.533-125.158 14.125-70.882-10.304-127.276-48.794-159.348-108.584 7.377-4.428 14.136-9.686 20.15-15.711l130.768-130.757c3.651-3.651 7.036-7.568 10.102-11.698l4.896 4.716c27.591 26.601 63.846 41.237 102.123 41.237h280.291c37.192 0 72.425 14.136 99.26 39.8zM315.428 97.912l-130.778 130.768c-9.697 9.708-22.588 15.051-36.298 15.051h-0.011c-13.625 0-26.452-5.344-36.138-15.041l-0.011-0.011-46.825-46.591 203.459-203.193 46.591 46.58c9.697 9.686 15.041 22.545 15.030 36.202 0 13.699-5.333 26.569-15.019 36.234zM878.202 885.157h-493.915v-438.979c5.439 0.266 10.783 0.404 15.967 0.404 36.777 0 72.574-6.983 106.37-20.767 0.83-0.33 1.661-0.522 2.32-0.522h246.835c25.291 0 49.156-10.527 66.347-29.081l56.075 57.991v430.953z" />
<glyph unicode="&#xe93b;" glyph-name="delivery" horiz-adv-x="1409" d="M1409.376 328.382v-239.828c0-30.417-24.65-55.054-55.054-55.054h-125.715c-19.957-67.799-82.732-117.457-156.903-117.457s-136.919 49.658-156.876 117.457h-420.28c-19.957-67.799-82.705-117.457-156.876-117.457s-136.946 49.658-156.903 117.457h-125.715c-30.403 0-55.054 24.637-55.054 55.054v794.605c0 30.403 24.65 55.054 55.054 55.054h812.043c30.403 0 55.054-24.65 55.054-55.054v-121.118h168.409c22.214 0 42.268-13.364 50.815-33.872l117.691-282.453 122.412-69.45c17.246-9.772 27.898-28.064 27.898-47.883zM418.381 73.043c3.936 49.81-37.505 91.224-87.315 87.246-39.212-3.111-70.978-34.877-74.102-74.089-3.978-49.837 37.492-91.307 87.343-87.315 39.212 3.152 70.964 34.932 74.075 74.157zM839.57 116.081v739.551h-756.989v-181.677h563.393v-82.581h-563.393v-76.649h445.935v-82.581h-445.935v-316.064h95.683c16.626 72.671 81.755 127.064 159.408 127.064 77.626 0 142.754-54.393 159.381-127.064h342.517zM1065.070-1.115c49.851-3.991 91.32 37.478 87.343 87.315-3.124 39.212-34.89 70.978-74.102 74.089-49.81 3.978-91.252-37.437-87.302-87.246 3.097-39.226 34.849-71.006 74.061-74.157zM1326.796 312.362l-111.305 63.119h-293.34v-229.822c25.435 57.352 82.883 97.486 149.554 97.486 77.653 0 142.782-54.393 159.408-127.064h95.683v196.28zM922.151 458.048h242.305l-92.256 221.412h-150.049v-221.412z" />
<glyph unicode="&#xe93c;" glyph-name="credit" horiz-adv-x="1459" d="M1458.877 816.304v-780.136c0-66.926-54.575-121.501-121.501-121.501h-1215.874c-66.926 0-121.501 54.575-121.501 121.501v780.136c0 66.926 54.575 121.501 121.501 121.501h1216.162c66.926 0 121.501-54.575 121.214-121.501zM81.001 659.76h1296.875v156.544c0 22.404-18.096 40.5-40.5 40.5h-1215.874c-22.404 0-40.5-18.096-40.5-40.5v-156.544zM1378.163 578.759h-1297.162v-542.591c0-22.404 18.096-40.5 40.5-40.5h1216.162c22.404 0 40.5 18.096 40.5 40.5v542.591zM336.383 288.305v15.798c0 119.002 74.236 185.871 173.75 185.871 98.982 0 173.75-61.612 173.75-183.76v-14.75c0-119.519-68.449-189.533-175.847-189.533-105.315 0-171.653 67.917-171.653 186.374zM575.953 289.368v15.267c0 68.966-20.006 103.721-65.82 103.721-45.283 0-65.806-34.224-65.806-103.721v-15.798c0-70.028 20.523-103.19 66.869-103.19 46.331 0 64.758 34.224 64.758 103.721zM922.936 197.222c0 53.713 43.186 93.725 100.045 93.725s99.513-37.915 99.513-92.146c0-54.747-38.964-96.871-100.045-96.871-62.129 0-99.513 41.061-99.513 95.291zM1023.512 484.703h51.602l-261.156-376.453h-51.602l261.156 376.453zM713.382 395.2c0 53.168 42.655 93.711 100.045 93.711 56.342 0 99.513-38.432 99.513-92.131 0-54.762-38.964-96.885-100.045-96.885-62.129 0-99.513 41.075-99.513 95.305zM1053.514 197.753c0 24.214-10.527 39.481-30.533 39.481-18.958 0-30.533-14.735-30.533-39.481 0-26.325 11.576-40.544 30.533-40.544 20.006 0 30.533 15.267 30.533 40.544zM843.443 395.2c0 24.745-10.542 40.012-30.016 40.012s-31.065-14.75-31.065-39.495c0-26.325 11.59-41.061 31.065-41.061s30.016 15.798 30.016 40.544z" />
<glyph unicode="&#xe93d;" glyph-name="bomb" horiz-adv-x="1022" d="M1019.325 883.98c-22.258-70.371-72.249-109.513-117.485-131.122l43.118-43.108c16.404-16.404 16.404-43.008 0-59.412l-93.738-93.728c79.033-164.619 51.779-370.698-87.315-509.792-174.869-174.879-457.903-174.859-632.752 0-174.879 174.879-174.859 457.903 0 632.752 139.294 139.304 345.343 166.258 509.792 87.325l93.728 93.728c16.404 16.404 43.018 16.394 59.412 0l43.028-43.028c34.187 10.49 84.218 35.166 102.11 91.72 6.993 22.118 30.59 34.376 52.719 27.383 22.118-6.993 34.376-30.6 27.383-52.719zM704.502 620.168c-141.702 141.692-372.256 141.692-513.948 0-141.692-141.702-141.692-372.246 0-513.948 141.702-141.692 372.256-141.692 513.948 0 141.692 141.702 141.692 372.246 0 513.948zM855.844 680.050l-91.471 91.461-49.472-49.482c35.096-26.254 65.826-57.194 91.461-91.461l49.482 49.482zM275.781 469.885c0 34.926 28.422 63.348 63.348 63.348s63.348-28.422 63.348-63.348c0-34.926-28.422-63.348-63.348-63.348s-63.348 28.422-63.348 63.348zM615.859 256.503c0-34.926-28.422-63.348-63.348-63.348-34.936 0-63.348 28.422-63.348 63.348 0 34.936 28.412 63.348 63.348 63.348 34.926 0 63.348-28.412 63.348-63.348zM603.551 520.925c16.404-16.404 16.404-42.998 0-59.402l-256.050-256.060c-16.414-16.404-43.008-16.404-59.412 0s-16.404 43.008 0 59.412l256.050 256.050c16.404 16.404 43.008 16.404 59.412 0z" />
<glyph unicode="&#xe93e;" glyph-name="bank" d="M604.88 705.655c0-51.342-41.756-93.098-93.109-93.098-51.342 0-93.098 41.756-93.098 93.098 0 51.353 41.756 93.109 93.098 93.109 51.353 0 93.109-41.756 93.109-93.109zM558.347 705.655c0 25.682-20.905 46.576-46.576 46.576s-46.576-20.894-46.576-46.576c0-25.671 20.905-46.565 46.576-46.565s46.576 20.894 46.576 46.565zM930.575 519.547v-418.782c51.331 0 93.065-41.734 93.065-93.043v-69.793c0-12.857-10.414-23.261-23.272-23.261h-977.108c-12.857 0-23.261 10.404-23.261 23.261v69.793c0 51.309 41.734 93.043 93.054 93.043v418.782h-69.793c-12.857 0-23.261 10.338-23.261 23.195v93.054c0 8.201 4.318 15.813 11.385 19.989l455.064 270.308c29.924 16.467 61.822 15.987 90.099 0.316 0.207-0.109 0.414-0.229 0.622-0.36l455.086-270.264c7.067-4.188 11.385-11.789 11.385-19.989v-93.054c0-12.857-10.414-23.195-23.272-23.195h-69.793zM790.988 100.786h93.065v418.76h-93.065v-418.76zM604.88 100.786h139.587v418.76h-139.587v-418.76zM465.293 100.786h93.054v418.76h-93.054v-418.76zM279.174 100.786h139.587v418.76h-139.587v-418.76zM139.587 100.786h93.054v418.76h-93.054v-418.76zM930.575 54.254h-837.521c-25.649 0-46.522-20.883-46.522-46.533v-46.522h930.575v46.522c0 25.66-20.883 46.533-46.533 46.533zM977.108 566.068v56.554l-443.363 263.339c-14.319 7.786-29.717 7.808-44.21-0.164l-443.003-263.176v-56.554h930.575z" />
<glyph unicode="&#xe93f;" glyph-name="arrow-cta" d="M916 372.6l-721.6-412.8c-70-40-152.2 29-124.6 104.8l138.4 383.4-138.4 383.4c-27.4 76 54.6 144.8 124.6 104.8l721.6-413c58.4-33.2 58.2-117.2 0-150.6z" />
<glyph unicode="&#xe940;" glyph-name="cat_super" d="M617.6 278.4h-214.4c-25.6 0-44.8-19.2-44.8-44.8v-51.2c0-25.6 19.2-44.8 44.8-44.8h214.4c25.6 0 44.8 19.2 44.8 44.8v51.2c0 25.6-19.2 44.8-44.8 44.8zM627.2 182.4c0-3.2-3.2-6.4-6.4-6.4h-214.4c-3.2 0-6.4 3.2-6.4 6.4v51.2c0 3.2 3.2 6.4 6.4 6.4h214.4c3.2 0 6.4-3.2 6.4-6.4v-51.2zM857.6 438.4v67.2c0 44.8-38.4 102.4-73.6 124.8-12.8 9.6-22.4 25.6-25.6 41.6v224c0 9.6 0 16-6.4 22.4s-16 12.8-25.6 12.8h-115.2c-16 0-28.8-12.8-28.8-28.8v-233.6c0-16-9.6-32-22.4-41.6-25.6-16-54.4-51.2-67.2-86.4v147.2c0 80-70.4 147.2-156.8 147.2s-156.8-64-156.8-147.2v-560c0-99.2 76.8-163.2 192-163.2h272c54.4 0 105.6 12.8 144 41.6 44.8 32 67.2 73.6 67.2 128l3.2 304c0-3.2 0-3.2 0 0v0 0zM620.8 892.8h99.2v-172.8h-99.2v172.8zM524.8 502.4c0 28.8 32 76.8 54.4 92.8 25.6 16 41.6 44.8 41.6 73.6v12.8h99.2v-12.8c3.2-28.8 19.2-57.6 41.6-70.4 25.6-16 54.4-60.8 54.4-92.8v-19.2c-9.6 3.2-22.4 3.2-32-3.2v0c-9.6-3.2-12.8-12.8-19.2-32l-16 41.6-6.4 3.2c-12.8 6.4-28.8 6.4-41.6 0l-48-16c-9.6-3.2-12.8-12.8-19.2-28.8l-16 41.6-6.4 3.2c-12.8 6.4-28.8 6.4-41.6 0l-32-16h-3.2c-3.2-3.2-6.4-6.4-12.8-12.8l3.2 35.2zM220.8 512l144 64-16 35.2-131.2-57.6v60.8l134.4 60.8-16 35.2-115.2-54.4v32c0 60.8 51.2 108.8 118.4 108.8s118.4-48 118.4-108.8v-195.2h-3.2c-12.8 6.4-28.8 6.4-41.6 0l-32-16c-9.6-3.2-12.8-12.8-19.2-32l-16 41.6-6.4 3.2c-12.8 6.4-28.8 6.4-41.6 0l-9.6 3.2-16-41.6c-6.4 16-9.6 25.6-19.2 32-9.6 3.2-22.4 6.4-32 3.2v25.6zM819.2 131.2c0-41.6-16-73.6-51.2-96-32-22.4-73.6-35.2-121.6-35.2h-272c-73.6 0-153.6 32-153.6 128v310.4c0 6.4 3.2 6.4 3.2 9.6 0 0 3.2 3.2 6.4 3.2v0c3.2-6.4 3.2-16 6.4-22.4 6.4-25.6 9.6-41.6 22.4-44.8 6.4-3.2 12.8-3.2 16 0h9.6l28.8 76.8 28.8-76.8 6.4-3.2c6.4-3.2 12.8-3.2 16 0 12.8 6.4 16 19.2 22.4 44.8 3.2 6.4 3.2 19.2 6.4 22.4l25.6 12.8c3.2 0 3.2 0 6.4 0l54.4-73.6c3.2-6.4 9.6-9.6 16-9.6 12.8-3.2 22.4 9.6 25.6 16s9.6 12.8 12.8 22.4c6.4 9.6 12.8 25.6 19.2 28.8l28.8 12.8h3.2l32-76.8 6.4-3.2c6.4-3.2 12.8-3.2 16 0 12.8 6.4 16 19.2 22.4 44.8 3.2 6.4 3.2 16 6.4 22.4l41.6 12.8h3.2l32-80 6.4-3.2c6.4-3.2 12.8-3.2 16 0 12.8 6.4 16 19.2 22.4 44.8 3.2 6.4 3.2 16 6.4 22.4 3.2 0 5.4 0.3 9-1.8 3.7-3.3 10.2-4.6 10.2-14.2l3.2-294.4z" />
<glyph unicode="&#xe941;" glyph-name="buscador-inteligente" d="M1030.4 787.2l-56 16c-36.8 11.2-64 38.4-75.2 75.2l-16 56c-3.2 14.4-17.6 25.6-33.6 25.6s-28.8-11.2-33.6-25.6l-16-56c-11.2-36.8-38.4-64-75.2-75.2l-56-16c-14.4-4.8-25.6-17.6-25.6-33.6s9.6-28.8 25.6-33.6l56-16c36.8-11.2 64-38.4 75.2-75.2l16-56c4.8-14.4 17.6-25.6 33.6-25.6s28.8 11.2 33.6 25.6l16 56c11.2 36.8 38.4 64 75.2 75.2l56 16c14.4 4.8 25.6 17.6 25.6 33.6s-11.2 30.4-25.6 33.6zM849.6 668.8c-17.6 36.8-48 67.2-84.8 84.8 36.8 17.6 67.2 48 84.8 84.8 17.6-36.8 48-67.2 84.8-84.8-36.8-17.6-67.2-48-84.8-84.8zM254.4 72c0 0-25.6 1.6-54.4 1.6-44.8 1.6-86.4 25.6-108.8 64-14.4 24-28.8 46.4-28.8 46.4-1.6 1.6-3.2 3.2-4.8 1.6-1.6 0-3.2-1.6-3.2-3.2 0 0-1.6-25.6-1.6-54.4-1.6-44.8-25.6-86.4-64-108.8-24-14.4-46.4-28.8-46.4-28.8-1.6-1.6-3.2-3.2-1.6-4.8 0-1.6 1.6-3.2 3.2-3.2 0 0 25.6-1.6 54.4-1.6 44.8-1.6 86.4-25.6 108.8-64 14.4-24 28.8-46.4 28.8-46.4 1.6-1.6 3.2-3.2 4.8-1.6 1.6 0 3.2 1.6 3.2 3.2 0 0 1.6 25.6 1.6 54.4 1.6 44.8 25.6 86.4 64 108.8 24 14.4 46.4 28.8 46.4 28.8 1.6 1.6 3.2 3.2 1.6 4.8 0 1.6-1.6 3.2-3.2 3.2zM723.2 305.6l6.4-4.8c40 49.6 67.2 108.8 80 169.6 3.2 14.4 0 28.8-8 40s-22.4 19.2-36.8 22.4c-25.6 3.2-51.2-14.4-57.6-40-32-148.8-166.4-252.8-320-248-161.6 4.8-296 136-304 299.2-3.2 86.4 27.2 169.6 88 233.6s142.4 99.2 228.8 99.2c60.8 0 118.4-17.6 169.6-49.6 20.8-12.8 48-11.2 64 6.4l4.8 4.8c9.6 11.2 12.8 27.2 9.6 41.6s-11.2 27.2-22.4 33.6c-73.6 48-160 70.4-249.6 65.6-211.2-11.2-380.8-179.2-395.2-390.4-8-118.4 32-230.4 112-315.2 78.4-84.8 190.4-132.8 307.2-132.8 92.8 0 180.8 30.4 254.4 86.4l-4.8 6.4 211.2-211.2c9.6-9.6 22.4-16 36.8-16s27.2 4.8 36.8 16c9.6 9.6 16 22.4 16 36.8s-4.8 27.2-16 36.8l-211.2 209.6z" />
<glyph unicode="&#xe942;" glyph-name="cat_autosmotos" d="M435.2 448c0-44.8 35.2-80 80-80s80 35.2 80 80c0 44.8-35.2 80-80 80-41.6-3.2-80-38.4-80-80zM409.6 662.4l64-108.8 9.6 3.2c22.4 6.4 41.6 6.4 64 0l9.6-3.2 64 108.8-12.8 6.4c-57.6 22.4-124.8 22.4-182.4 0l-16-6.4zM409.6 230.4l12.8-6.4c28.8-12.8 60.8-19.2 92.8-19.2s64 6.4 92.8 19.2l12.8 6.4-64 108.8-9.6-3.2c-22.4-6.4-41.6-6.4-64 0l-9.6 3.2-64-108.8zM662.4 256c51.2 38.4 83.2 96 92.8 160l3.2 12.8h-128l-3.2-9.6c-6.4-22.4-16-41.6-32-54.4l-6.4-6.4 64-108.8 9.6 6.4zM755.2 480c-9.6 64-41.6 118.4-92.8 160l-12.8 9.6-64-108.8 6.4-6.4c16-16 25.6-35.2 32-54.4l3.2-9.6h128v9.6zM368 636.8c-51.2-38.4-83.2-96-92.8-160l-3.2-12.8h128l3.2 9.6c6.4 22.4 16 41.6 32 54.4l6.4 6.4-64 108.8-9.6-6.4zM278.4 416c9.6-64 41.6-118.4 92.8-160l12.8-9.6 64 108.8-6.4 6.4c-16 16-25.6 35.2-32 54.4l-3.2 9.6h-128v-9.6zM515.2 172.8c-150.4 0-275.2 124.8-275.2 275.2s124.8 275.2 275.2 275.2c153.6 0 275.2-124.8 275.2-275.2s-121.6-275.2-275.2-275.2zM227.2 844.8c0 9.6 3.2 16 9.6 19.2l54.4 32c9.6 6.4 16 3.2 22.4 0l73.6-64h6.4c12.8 3.2 22.4 6.4 35.2 9.6h6.4l32 92.8c3.2 6.4 9.6 12.8 16 12.8h64c6.4 0 12.8-3.2 16-12.8l32-92.8h6.4c12.8-3.2 22.4-6.4 35.2-9.6h6.4l73.6 64c6.4 6.4 12.8 6.4 19.2 3.2l54.4-32c6.4-3.2 9.6-12.8 9.6-19.2l-19.2-96 6.4-3.2c9.6-9.6 19.2-16 25.6-25.6l3.2-6.4 96 19.2c6.4 0 16-3.2 19.2-9.6l32-57.6c3.2-6.4 3.2-16-3.2-19.2l-64-73.6 3.2-6.4c3.2-12.8 6.4-22.4 9.6-35.2l3.2-6.4 92.8-32c6.4-3.2 12.8-9.6 12.8-16v-64c0-6.4-3.2-12.8-12.8-16l-92.8-32-3.2-6.4c-3.2-12.8-6.4-22.4-9.6-35.2l-3.2-6.4 64-73.6c6.4-6.4 6.4-12.8 3.2-19.2l-32-57.6c-3.2-6.4-12.8-9.6-19.2-9.6l-96 19.2-3.2-6.4c-9.6-9.6-16-19.2-25.6-25.6l-6.4-3.2 19.2-96c0-6.4-3.2-16-9.6-19.2l-54.4-32c-6.4-3.2-16-3.2-19.2 3.2l-73.6 64-6.4-3.2c-12.8-3.2-22.4-6.4-35.2-9.6h-6.4l-32-92.8c-3.2-6.4-9.6-12.8-16-12.8h-64c-6.4 0-12.8 3.2-16 12.8l-32 92.8h-6.4c-12.8 3.2-25.6 6.4-35.2 9.6l-6.4 3.2-73.6-64c-6.4-3.2-12.8-6.4-19.2-3.2l-54.4 32c-6.4 3.2-9.6 12.8-9.6 19.2l19.2 96-6.4 3.2c-9.6 9.6-19.2 16-25.6 25.6l-3.2 6.4-96-19.2c-6.4-3.2-16 3.2-19.2 9.6l-35.2 54.4c-3.2 6.4-3.2 16 3.2 19.2l64 73.6-3.2 6.4c-3.2 12.8-6.4 22.4-9.6 35.2v6.4l-92.8 32c-6.4 3.2-12.8 9.6-12.8 16v64c0 6.4 3.2 12.8 12.8 16l92.8 32v6.4c3.2 12.8 6.4 22.4 9.6 35.2l3.2 9.6-64 73.6c-3.2 6.4-6.4 12.8-3.2 19.2l32 57.6c6.4 6.4 12.8 9.6 19.2 6.4l96-19.2 3.2 6.4c9.6 9.6 19.2 19.2 28.8 25.6l6.4 3.2-22.4 96zM278.4 729.6c-16-12.8-32-28.8-48-48-3.2-3.2-9.6-3.2-16-3.2l-92.8 19.2-19.2-35.2 64-70.4c3.2-6.4 6.4-12.8 3.2-19.2-6.4-22.4-12.8-41.6-16-64 0-6.4-6.4-12.8-12.8-12.8l-89.6-28.8v-38.4l89.6-28.8c6.4-3.2 9.6-6.4 12.8-12.8 3.2-22.4 9.6-41.6 16-64 3.2-6.4 0-12.8-3.2-19.2l-64-70.4 19.2-35.2 92.8 19.2c6.4 0 12.8 0 16-6.4 12.8-16 28.8-32 48-48 3.2-3.2 6.4-9.6 6.4-16l-19.2-92.8 35.2-19.2 70.4 64c3.2 3.2 12.8 6.4 19.2 3.2 19.2-6.4 41.6-12.8 64-16 6.4 0 12.8-6.4 12.8-12.8l28.8-89.6h38.4l28.8 89.6c3.2 6.4 6.4 9.6 12.8 12.8 22.4 3.2 41.6 9.6 64 16 6.4 3.2 12.8 0 19.2-3.2l70.4-64 35.2 19.2-19.2 92.8c0 6.4 0 12.8 6.4 16 16 12.8 32 28.8 48 48 3.2 6.4 9.6 6.4 16 6.4l92.8-19.2 19.2 35.2-64 70.4c-3.2 6.4-6.4 12.8-3.2 19.2 6.4 22.4 12.8 41.6 16 64 0 6.4 6.4 12.8 12.8 12.8l89.6 28.8v38.4l-89.6 28.8c-6.4 3.2-9.6 6.4-12.8 12.8-3.2 22.4-9.6 41.6-16 64-3.2 6.4 0 12.8 3.2 19.2l64 70.4-19.2 35.2-92.8-19.2c-6.4 0-12.8 0-16 6.4-12.8 16-28.8 32-48 48-6.4 3.2-6.4 9.6-6.4 16l19.2 92.8-35.2 19.2-70.4-64c-3.2-3.2-12.8-6.4-19.2-3.2-19.2 6.4-41.6 12.8-64 16-6.4 0-12.8 6.4-12.8 12.8l-28.8 89.6h-38.4l-28.8-89.6c-3.2-6.4-6.4-9.6-12.8-12.8-22.4-3.2-41.6-9.6-64-16-6.4-3.2-12.8 0-19.2 3.2l-70.4 64-35.2-19.2 19.2-92.8c0-6.4 0-12.8-6.4-19.2z" />
<glyph unicode="&#xe943;" glyph-name="bomb_fill" horiz-adv-x="1179" d="M1164.092 813.815l-66.511 66.497c-55.017 55.045-144.557 55.017-199.532 0l-22.17-22.156-66.525 66.511c-18.367 18.381-48.143 18.381-66.511 0l-46.256-46.256c-60.919 25.649-126.965 39.143-195.152 39.143-134.162 0-260.127-52.101-354.738-146.698-195.602-195.602-195.602-513.887 0-709.49 94.611-94.597 220.576-146.698 354.738-146.698s260.155 52.101 354.752 146.698c94.597 94.611 146.698 220.576 146.698 354.738 0 68.469-13.592 134.796-39.467 195.926l28.269 28.269c-0.169 0.197-0.338 0.394-0.493 0.606l17.705 17.719c18.381 18.353 18.381 48.143 0 66.497l-66.511 66.525 22.156 22.17c18.339 18.325 48.172 18.353 66.525 0l66.511-66.511c9.184-9.184 21.227-13.775 33.255-13.775s24.058 4.592 33.255 13.775c18.367 18.353 18.367 48.158 0 66.511z" />
<glyph unicode="&#xe944;" glyph-name="internacional" d="M800 416c-88.4 0-160-71.6-160-160 0-142.4 135-245.4 140.8-249.6 11.4-8.6 27-8.6 38.4 0 5.8 4.2 140.8 107.2 140.8 249.6 0 88.4-71.6 160-160 160zM800 74.2c-32 30.4-96 99.8-96 181.8 0 53 43 96 96 96s96-43 96-96c0-82-64-151.4-96-181.8zM800 288c-17.6 0-32-14.4-32-32s14.4-32 32-32 32 14.4 32 32-14.4 32-32 32zM600.6 74.2c-29-6.8-58.8-10.2-88.6-10.2-10.8 0-21.4 0-32 1.6v30.4c0 53-43 96-96 96-17.6 0-32 14.4-32 32s14.4 32 32 32h48c79.6 0 144 64.4 144 144s-64.4 144-144 144h-32c-26.6 0-48 21.4-48 48v204.4c40.4 18.6 83.6 30.2 128 34v-46.4c0-61.8 50.2-112 112-112 26.6 0 48-21.4 48-48v-16c0-53 43-96 96-96h154.6c2.4-11.4 4.4-23 5.4-34.6 1.4-17.6 16.8-30.8 34.6-29.4 17.6 1.4 30.8 16.8 29.4 34.6v0c-19 246.6-234.6 431.2-481.2 412s-431.2-234.4-412.2-481.2c18-232.8 211.8-412.8 445.4-413.4 34.8 0 69.6 4 103.4 12.2 16.8 5.4 26 23.4 20.6 40.2-4.8 15-19.8 24.2-35.4 21.8zM873.6 576h-137.6c-17.6 0-32 14.4-32 32v16c0 61.8-50.2 112-112 112-26.6 0-48 21.4-48 48v46.4c150.2-13.2 278.8-112.6 329.6-254.4zM128 448c0.2 123.4 59.8 239.4 160 311.4v-167.4c0-61.8 50.2-112 112-112h32c44.2 0 80-35.8 80-80s-35.8-80-80-80h-48c-53 0-96-43-96-96s43-96 96-96c17.6 0 32-14.4 32-32v-19.6c-169.4 43.8-287.8 196.6-288 371.6z" />
<glyph unicode="&#xe945;" glyph-name="mo_top" horiz-adv-x="1186" d="M519.322 278.14l129.7-67.988c6.799-3.661 14.644 2.092 13.075 9.414l-5.23 30.333-19.873 114.010c-0.523 3.138 0.523 5.753 2.615 7.845l80.016 77.924 25.103 24.057c5.23 5.23 2.615 14.644-5.23 15.689l-19.873 2.615-125.516 18.304c-3.138 0.523-5.753 2.092-6.799 5.23l-64.85 131.269c-3.138 6.799-13.075 6.799-16.212 0l-64.85-131.269c-1.569-2.615-3.661-4.707-6.799-5.23l-21.965-3.138-123.424-17.781c-7.322-1.046-10.46-10.46-5.23-15.689l12.552-12.029 92.568-90.476c2.092-2.092 3.138-5.23 2.615-7.845l-19.873-114.010-5.23-30.333c-1.569-7.322 6.799-13.075 13.075-9.414l129.7 67.988c0.523 0.523 1.569 0.523 2.092 0.523 3.661 1.569 5.753 1.046 7.845 0zM883.318 801.123c29.287 23.534 71.649 18.304 94.66-10.46 5.23-6.276 8.891-13.598 11.506-20.919l36.609-4.184c3.661-0.523 6.799-1.046 10.46-1.569l10.46 78.447-360.335 32.948 312.744-391.714 29.81 223.837c-3.138 0.523-5.753 1.046-8.891 1.569l-37.132 4.184c-1.046-1.569-2.092-3.138-3.138-4.707-2.092-3.138-4.707-5.753-7.322-8.891-1.569-1.569-3.138-2.615-4.707-3.661-29.287-23.534-71.649-18.304-95.183 10.46-23.534 29.287-18.827 71.649 10.46 94.66zM1185.079 587.746v-232.204c0-16.735-14.121-29.81-30.856-28.241-14.644 1.569-25.626 14.644-25.626 29.81v230.635c0 12.029-0.523 23.011-10.46 41.839v0c-17.781 30.333-20.919 35.563-36.086 50.206l-35.040-269.336c-1.046-7.322-4.707-14.121-10.46-18.827l-577.896-461.271-0.523 0.523c-14.644-11.506-33.471-17.781-53.344-15.689-19.35 2.092-36.086 12.029-48.114 26.149l-1.569 1.569-340.462 426.231 0.523 0.523c-11.506 14.644-17.781 33.471-15.166 53.344 2.092 19.873 12.552 37.132 26.672 48.637l577.896 460.748c5.753 4.707 13.075 6.799 20.396 6.276l456.041-41.839c0 0 0.523 0 0.523 0 7.322-1.046 14.121-4.707 18.827-10.46 4.707-6.276 6.799-13.598 5.753-21.442l-16.212-120.809c27.195-16.212 60.666-40.793 78.97-82.108 0 0 0-0.523 0-0.523 12.029-22.488 16.212-47.068 16.212-73.741z" />
<glyph unicode="&#xe946;" glyph-name="ico-whatsapp" d="M851.632 788.983c-89.938 89.938-209.304 139.486-336.629 139.486-262.156 0-475.514-213.358-475.665-475.665 0-83.782 21.921-165.612 63.512-237.832l-67.416-246.541 252.246 66.215c69.518-37.837 147.744-57.806 227.322-57.957h0.15c262.156 0 475.665 213.358 475.665 475.665 0 127.174-49.398 246.691-139.186 336.629zM515.003 57.018h-0.15c-71.019 0-140.537 19.069-201.196 55.104l-14.414 8.558-149.696-39.188 39.939 145.943-9.459 15.015c-39.489 62.911-60.359 135.582-60.359 210.355 0.15 218.013 177.473 395.336 395.636 395.336 105.553 0 204.95-41.14 279.573-115.913s115.763-174.020 115.763-279.723c-0.3-218.013-177.623-395.486-395.636-395.486zM731.965 353.257c-11.862 6.006-70.269 34.684-81.229 38.738-10.961 3.904-18.768 6.006-26.726-6.006-7.958-11.862-30.63-38.738-37.687-46.545-6.907-7.958-13.813-8.859-25.825-3.003-11.862 6.006-50.149 18.468-95.643 59.008-35.284 31.531-59.158 70.419-66.065 82.28s0 17.717 5.255 24.324c12.913 15.916 25.825 32.732 29.729 40.69s1.952 14.865-1.051 20.87c-3.003 6.006-26.726 64.413-36.636 88.286-9.609 23.123-19.519 19.97-26.726 20.42-6.907 0.3-14.865 0.45-22.822 0.45s-20.87-3.003-31.681-14.865c-10.961-11.862-41.591-40.69-41.591-99.097s42.642-115.012 48.497-122.97c6.006-7.958 83.782-127.925 202.998-179.425 28.378-12.312 50.449-19.519 67.716-25.074 28.528-9.009 54.353-7.808 74.923-4.655 22.822 3.453 70.269 28.828 80.178 56.455 9.91 27.777 9.91 51.5 6.907 56.455-2.703 4.655-10.66 7.657-22.522 13.663z" />
<glyph unicode="&#xe947;" glyph-name="discount" horiz-adv-x="850" d="M424.754-64c231.575 1.042 420.042 186.6 424.667 418.125 4.633 231.525-176.258 424.483-407.6 434.783v154.025c0 9.425-7.642 17.067-17.067 17.067s-17.067-7.642-17.067-17.067v-154.025c-231.342-10.3-412.233-203.258-407.6-434.783s193.1-417.083 424.667-418.125zM424.754 584.533c9.425 0 17.067 7.642 17.067 17.067v12.325c13.383-7.725 19.908-23.475 15.908-38.4-4-14.917-17.525-25.3-32.975-25.3-15.442 0-28.967 10.383-32.967 25.3-4 14.925 2.525 30.675 15.9 38.4v-12.325c0-9.425 7.642-17.067 17.067-17.067zM407.687 754.775v-104.4c-33.283-8.592-54.983-40.6-50.65-74.7 4.325-34.1 33.342-59.667 67.717-59.667 34.383 0 63.392 25.567 67.725 59.667s-17.367 66.108-50.658 74.7v104.4c213.267-9.283 380.017-187.283 375.375-400.7s-178.975-384-392.442-384c-213.458 0-387.792 170.583-392.433 384s162.108 391.417 375.367 400.7zM312.12 110.083c7.533-5.658 18.233-4.133 23.892 3.408l204.8 273.067c5.65 7.542 4.125 18.242-3.417 23.892-7.542 5.658-18.233 4.133-23.892-3.408l-204.8-273.067c-5.658-7.542-4.125-18.242 3.417-23.892zM339.42 277.333c37.708 0 68.267 30.567 68.267 68.267s-30.558 68.267-68.267 68.267c-37.7 0-68.267-30.567-68.267-68.267s30.567-68.267 68.267-68.267zM339.42 379.733c18.858 0 34.133-15.283 34.133-34.133s-15.275-34.133-34.133-34.133c-18.85 0-34.133 15.283-34.133 34.133s15.283 34.133 34.133 34.133zM441.82 174.933c0-37.7 30.567-68.267 68.267-68.267 37.708 0 68.267 30.567 68.267 68.267s-30.558 68.267-68.267 68.267c-37.7 0-68.267-30.567-68.267-68.267zM544.22 174.933c0-18.85-15.275-34.133-34.133-34.133-18.85 0-34.133 15.283-34.133 34.133s15.283 34.133 34.133 34.133c18.858 0 34.133-15.283 34.133-34.133z" />
<glyph unicode="&#xe948;" glyph-name="ico-money" d="M512-64c-136.8 0-265.4 53.2-362 150s-150 225.2-150 362 53.2 265.4 150 362 225.2 150 362 150 265.4-53.2 362-150 150-225.2 150-362-53.2-265.4-150-362-225.2-150-362-150v0zM512 896c-247 0-448-201-448-448s201-448 448-448 448 201 448 448-201 448-448 448zM512 480c-44.2 0-80 35.8-80 80s35.8 80 80 80 80-35.8 80-80c0-17.6 14.4-32 32-32s32 14.4 32 32c0 68.4-48 125.8-112 140.4v35.6c0 17.6-14.4 32-32 32s-32-14.4-32-32v-35.6c-64-14.6-112-72-112-140.4 0-79.4 64.6-144 144-144 44.2 0 80-35.8 80-80s-35.8-80-80-80-80 35.8-80 80c0 17.6-14.4 32-32 32s-32-14.4-32-32c0-68.4 48-125.8 112-140.4v-35.6c0-17.6 14.4-32 32-32s32 14.4 32 32v35.6c64 14.6 112 72 112 140.4 0 79.4-64.6 144-144 144z" />
<glyph unicode="&#xe949;" glyph-name="electro" d="M140.8 186.311c12.8 0 22.756-9.956 22.756-22.756s-9.956-22.756-22.756-22.756c-12.8 0-22.756 9.956-22.756 22.756s9.956 22.756 22.756 22.756zM954.311 839.111h-884.622c-38.4 0-69.689-31.289-69.689-69.689v-226.133c0-12.8 9.956-22.756 22.756-22.756s22.756 9.956 22.756 22.756v226.133c0 12.8 9.956 22.756 22.756 22.756h884.622c12.8 0 22.756-9.956 22.756-22.756v-506.311c0-12.8-9.956-22.756-22.756-22.756h-604.444c-12.8 0-22.756-9.956-22.756-22.756s9.956-22.756 22.756-22.756h46.933v-69.689c0-12.8-9.956-22.756-22.756-22.756h-22.756c-12.8 0-22.756-9.956-22.756-22.756s9.956-22.756 22.756-22.756h325.689c12.8 0 22.756 9.956 22.756 22.756s-9.956 22.756-22.756 22.756h-22.756c-12.8 0-22.756 9.956-22.756 22.756v69.689h325.689c38.4 0 69.689 31.289 69.689 69.689v504.889c0 38.4-31.289 69.689-71.111 69.689zM438.044 100.978c2.844 7.111 4.267 15.644 4.267 22.756v69.689h139.378v-69.689c0-8.533 1.422-15.644 4.267-22.756h-147.911zM210.489 473.6h-139.378c-38.4 0-69.689-31.289-69.689-69.689v-278.756c0-38.4 31.289-69.689 69.689-69.689h139.378c38.4 0 69.689 31.289 69.689 69.689v278.756c0 38.4-31.289 69.689-69.689 69.689zM233.244 123.733c0-12.8-9.956-22.756-22.756-22.756h-139.378c-12.8 0-22.756 9.956-22.756 22.756v280.178c0 12.8 9.956 22.756 22.756 22.756h139.378c12.8 0 22.756-9.956 22.756-22.756v-280.178zM516.267 338.489c12.8 0 22.756-9.956 22.756-22.756s-15.644-22.756-22.756-22.756c-12.8 0-22.756 9.956-22.756 22.756s9.956 22.756 22.756 22.756z" />
<glyph unicode="&#xe94a;" glyph-name="smartphone" horiz-adv-x="768" d="M497.6 106.656c-32.928 0-59.744-26.784-59.744-59.744s26.784-59.744 59.744-59.744c32.928 0 59.744 26.784 59.744 59.744s-26.816 59.744-59.744 59.744zM497.6 21.344c-14.112 0-25.6 11.488-25.6 25.6s11.488 25.6 25.6 25.6 25.6-11.488 25.6-25.6c0-14.112-11.488-25.6-25.6-25.6zM574.4 328.544c37.664 0 68.256 30.624 68.256 68.256s-30.624 68.256-68.256 68.256c-37.664 0-68.256-30.624-68.256-68.256s30.592-68.256 68.256-68.256zM574.4 430.944c18.816 0 34.144-15.296 34.144-34.144s-15.296-34.144-34.144-34.144c-18.816 0-34.144 15.296-34.144 34.144s15.296 34.144 34.144 34.144zM164.8 755.2c4.384 0 8.736 1.664 12.064 4.992l34.144 34.144c6.656 6.656 6.656 17.472 0 24.128s-17.472 6.656-24.128 0l-34.144-34.144c-6.656-6.656-6.656-17.472 0-24.128 3.328-3.328 7.68-4.992 12.064-4.992zM779.2 452.32c0 15.008-5.856 29.12-16.48 39.744l-9.504 9.504c16.192 14.336 25.952 35.072 25.952 57.376 0 42.336-34.464 76.8-76.8 76.8-3.104 0-6.176-0.32-9.216-0.672 0.384 3.040 0.672 6.080 0.672 9.216 0 42.336-34.464 76.8-76.8 76.8-3.104 0-6.176-0.32-9.216-0.672 0.384 3.072 0.672 6.080 0.672 9.216 0 42.336-34.464 76.8-76.8 76.8-3.104 0-6.176-0.32-9.216-0.672 0.384 3.072 0.672 6.080 0.672 9.216 0 42.336-34.464 76.8-76.8 76.8-22.336 0-43.040-9.792-57.376-25.952l-77.76 77.76c-21.92 21.92-57.6 21.92-79.488 0l-210.144-210.144c-21.888-21.92-21.888-57.6 0-79.52l148.032-148.032c-23.136-13.248-38.976-37.92-38.976-66.432 0-26.688 13.696-50.208 34.432-63.968 1.024-1.376 2.24-2.752 3.872-4.128l183.584-182.88v-30.656h-34.144v-221.856h443.744v221.888h-34.144v51.712c32.64 27.68 51.2 67.456 51.2 110.432 0 29.696-9.28 58.528-26.208 82.816l9.76 9.76c10.624 10.624 16.48 24.736 16.48 39.744zM745.088 558.944c0-13.12-6.048-25.248-16-33.216l-59.936 59.936c8 9.952 20.128 16 33.216 16 23.552-0.032 42.688-19.136 42.688-42.688zM659.744 644.288c0-13.12-6.048-25.248-16-33.216l-59.936 59.936c8 9.952 20.128 16 33.216 16 23.52-0.032 42.688-19.136 42.688-42.688zM574.4 729.6c0-13.12-6.048-25.248-16-33.216l-59.936 59.936c8 9.952 20.128 16 33.216 16 23.552-0.032 42.688-19.136 42.688-42.688zM446.4 857.6c23.552 0 42.656-19.136 42.656-42.656 0-13.12-6.048-25.248-16-33.216l-59.936 59.936c8 9.92 20.128 15.968 33.248 15.968zM45.728 678.048c-8.608 8.608-8.608 22.624 0 31.232l210.144 210.144c2.144 2.144 4.608 3.744 7.264 4.8 1.184 0.512 2.528 0.48 3.808 0.768 3.040 0.64 6.048 0.64 9.088 0 1.28-0.256 2.624-0.256 3.808-0.768 2.656-1.088 5.12-2.688 7.264-4.8l40.096-40.096-241.376-241.344-40.096 40.064zM351.328 855.2l387.264-387.264c8.608-8.608 8.608-22.624 0-31.232l-7.456-7.488-202.656-202.656c-8.576-8.608-22.624-8.64-31.232 0l-136.096 136.128h16.992c42.336 0 76.8 34.464 76.8 76.8s-34.464 76.8-76.8 76.8h-170.624l-97.568 97.568 241.376 241.344zM198.24 481.088l7.072 0.8c0.704 0.096 1.408 0.256 2.112 0.256h170.656c23.552 0 42.656-19.136 42.656-42.656s-19.136-42.656-42.656-42.656h-170.656c-23.552 0-42.656 19.136-42.656 42.656 0 20.352 14.368 37.376 33.472 41.6zM352.544-29.856v153.6h143.808c52.448 0 95.136-42.688 95.136-95.136v-58.464h-238.944zM728-29.856h-102.4v58.464c0 37.664-16.288 71.488-42.048 95.136h144.448v-153.6zM728.448 378.24c10.816-17.44 16.64-37.6 16.64-58.24 0-35.072-16.192-67.36-44.416-88.608l-6.784-5.12v-68.416h-307.232v46.4l-6.016 5.088c-0.768 0.672-1.6 1.28-3.072 2.4l-151.488 150.944h86.784l160.256-160.256c10.976-10.944 25.376-16.448 39.744-16.448s28.8 5.472 39.776 16.448l175.84 175.808z" />
<glyph unicode="&#xe94b;" glyph-name="ico-servicios-varios" d="M335.1 908h-71c-17.7 0-32.1-14.4-32.1-32.2v-71c0-17.7 14.4-32.2 32.2-32.2h71c17.7 0 32.2 14.4 32.2 32.2v71c-0.1 17.8-14.5 32.2-32.3 32.2v0zM338.5 802.7h-77.6v77.6h77.6v-77.6zM548 908h-71c-17.7 0-32.2-14.4-32.2-32.2v-71c0-17.7 14.4-32.2 32.2-32.2h71c17.7 0 32.2 14.4 32.2 32.2v71c0 17.8-14.4 32.2-32.2 32.2zM551.4 802.7h-77.6v77.6h77.6v-77.6zM759.8 908h-71c-17.7 0-32.2-14.4-32.2-32.2v-71c0-17.7 14.4-32.2 32.2-32.2h71c17.7 0 32.2 14.4 32.2 32.2v71c0 17.8-14.4 32.2-32.2 32.2zM764.3 802.7h-77.6v77.6h77.6v-77.6zM335.1 696.2h-71c-17.7 0-32.2-14.4-32.2-32.2v-71c0-17.7 14.4-32.2 32.2-32.2h71c17.7 0 32.2 14.4 32.2 32.2v71c0 17.8-14.4 32.2-32.2 32.2v0zM338.5 589.7h-77.6v77.6h77.6v-77.6zM548 696.2h-71c-17.7 0-32.2-14.4-32.2-32.2v-71c0-17.7 14.4-32.2 32.2-32.2h71c17.7 0 32.2 14.4 32.2 32.2v71c0 17.8-14.4 32.2-32.2 32.2zM551.4 589.7h-77.6v77.6h77.6v-77.6zM759.8 696.2h-71c-17.7 0-32.2-14.4-32.2-32.2v-71c0-17.7 14.4-32.2 32.2-32.2h71c17.7 0 32.2 14.4 32.2 32.2v71c0 17.8-14.4 32.2-32.2 32.2zM764.3 589.7h-77.6v77.6h77.6v-77.6zM335.1 483.3h-71c-17.7 0-32.2-14.4-32.2-32.2v-71c0-17.7 14.4-32.2 32.2-32.2h71c17.7 0 32.2 14.4 32.2 32.2v71c0 17.8-14.4 32.2-32.2 32.2v0zM338.5 376.8h-77.6v77.6h77.6v-77.6zM548 483.3h-71c-17.7 0-32.2-14.4-32.2-32.2v-71c0-17.7 14.4-32.2 32.2-32.2h71c17.7 0 32.2 14.4 32.2 32.2v71c0 17.8-14.4 32.2-32.2 32.2zM551.4 376.8h-77.6v77.6h77.6v-77.6zM759.8 483.3h-71c-17.7 0-32.2-14.4-32.2-32.2v-71c0-17.7 14.4-32.2 32.2-32.2h71c17.7 0 32.2 14.4 32.2 32.2v71c0 17.8-14.4 32.2-32.2 32.2zM764.3 376.8h-77.6v77.6h77.6v-77.6zM134.4 345.6h-86.4c-16 0-28.8-12.8-28.8-28.8v-295.2c0-16 12.8-28.8 28.8-28.8h89.6c16 0 28.8 12.8 28.8 28.8v295.2c0 16-16 28.8-32 28.8zM137.6 21.6c0 0-3.2-3.2 0 0l-89.6-3.2c0 0-3.2 0-3.2 3.2v295.2c0 0 0 3.2 3.2 3.2h89.6c0 0 3.2 0 3.2-3.2v-295.2h-3.2zM995.2 284c-19.2 28.8-57.6 35.2-83.2 16l-195.2-131.2-41.6 3.2v9.6c-3.2 41.6-35.2 53.6-76.8 60v0l-156.8 19.2c-35.2 6.4-67.2 16-99.2 35.2-41.6 22.4-86.4-1.6-131.2 1.6-6.4 0-16-6.4-16-12.8s6.4-16 12.8-16c41.6-3.2 83.2 24 118.4 4.8 32-19.2 70.4-32 108.8-38.4v0l156.8-19.2c28.8-3.2 48-5.6 51.2-34.4v-9.6l-224-35.2-96 22.4c-6.4 3.2-16-3.2-16-9.6 0-9.6 3.2-16 12.8-19.2l99.2-25.6h3.2c0 0 0 0 3.2 0l240 38.4 57.6-3.2c3.2 0 6.4 0 9.6 3.2l198.4 131.2c16 9.6 35.2 6.4 44.8-9.6 9.6-12.8 6.4-32-6.4-41.6l-195.2-176c-16-12.8-35.2-22.4-57.6-25.6l-304-41.6c-9.6 0-19.2 0-28.8 3.2l-160 60.8c-6.4 3.2-16 0-19.2-9.6-3.2-6.4 0-16 9.6-19.2l160-60.8c9.6-3.2 19.2-3.2 25.6-3.2 3.2 0 9.6 0 12.8 0v0l304 44.8c25.6 3.2 51.2 16 70.4 32v0l195.2 176c28.8 19.2 32 54.4 12.8 80v0z" />
<glyph unicode="&#xe94c;" glyph-name="notification_light" horiz-adv-x="1130" d="M962.11 960h-792.193c-93.623 0-169.916-76.294-169.916-169.916v-519.877c0-93.623 76.294-169.916 169.916-169.916h310.576c19.13 0 34.884 15.754 34.884 34.884s-15.754 34.884-34.884 34.884h-310.576c-55.138 0-100.149 45.011-100.149 100.149v528.654l406.449-252.737c27.232-16.879 58.289-25.881 89.797-25.881s62.565 9.002 89.797 25.881l406.449 252.737v-290.096c0-19.13 15.754-34.884 34.884-34.884s34.884 15.754 34.884 34.884v281.319c0 93.623-76.294 169.916-169.916 169.916zM617.551 608.464c-15.979-9.902-33.758-14.854-51.538-14.854s-35.784 4.951-51.538 14.854l-404.199 251.161 11.928 8.552c16.654 12.153 36.459 18.455 56.939 18.455h773.514c20.48 0 40.285-6.302 56.939-18.455l11.928-8.552-403.974-251.161zM1109.521 136.074l-0.675 0.225c-19.13 7.877-41.635 28.357-41.635 60.315v67.516c0 87.771-62.115 166.541-147.861 187.021l-7.877 1.8v37.584c0 19.13-15.754 34.884-34.884 34.884s-34.884-15.754-34.884-34.884v-37.134l-7.877-1.8c-86.871-19.805-149.887-98.574-149.887-187.696v-67.516c0-31.958-22.505-52.438-41.635-60.315l-0.675-0.225c-13.953-4.726-22.505-17.104-22.505-32.633 0-26.782 9.452-55.814 25.431-77.869 21.605-29.932 53.788-46.586 90.697-46.586h106.451v-10.127c0-19.13 15.754-34.884 34.884-34.884s34.884 15.754 34.884 34.884v10.127h104.425c36.909 0 69.092 16.429 90.697 46.586 15.979 22.055 25.431 51.313 25.431 77.869 0 15.529-8.552 28.132-22.505 32.858zM1060.009 72.608c-8.102-18.229-22.505-28.132-40.735-28.132h-287.62c-18.229 0-32.633 10.127-40.735 28.132l-3.376 7.652 6.752 4.951c21.155 15.529 56.489 50.637 56.489 110.952v69.092c0 68.192 55.589 124.68 123.78 125.581h2.025c68.192-0.9 123.78-57.164 123.78-125.581v-69.092c0-60.315 35.559-95.423 56.489-110.952l6.752-4.951-3.601-7.652z" />
<glyph unicode="&#xe94d;" glyph-name="right_4" d="M1024 448.352c0 282.144-229.76 511.648-512.256 511.648-282.144 0-511.744-229.504-511.744-511.648 0-282.496 229.504-512.352 511.648-512.352 282.592 0 512.352 229.952 512.352 512.352zM764.704 445.408l-321.44-321.536-98.528 98.432 223.104 223.104-223.104 222.944 98.528 98.528 321.44-321.44z" />
<glyph unicode="&#xe94e;" glyph-name="down_4" d="M512.352-64.096c282.144 0 511.648 229.76 511.648 512.256 0 282.144-229.504 511.648-511.648 511.648-282.496 0.096-512.352-229.408-512.352-511.552 0-282.496 229.856-512.352 512.352-512.352zM509.408 195.296l-321.536 321.376 98.432 98.528 223.104-223.104 222.944 223.104 98.528-98.528-321.44-321.376z" />
<glyph unicode="&#xe94f;" glyph-name="click" horiz-adv-x="1325" d="M1239.040 584.431l-226.484 248.891c-44.815 44.815-117.82 44.874-163.056-0.361-14.335-14.335-24.093-31.502-29.153-49.815-45.055 34.515-110.050 31.081-151.553-10.422-14.276-14.335-24.034-31.502-29.215-49.753-45.055 34.393-110.050 31.022-151.491-10.481-14.036-14.036-23.672-30.779-28.913-48.61l-106.738 106.738c-44.815 44.815-117.82 44.874-163.056-0.361-44.874-44.815-44.874-117.82 0-162.694l410.081-410.081-243.23-38.188c-65.718-9.397-115.29-66.5-115.29-132.94 0-49.815 40.537-90.353 90.353-90.353h567.958c88.487 0 171.67 34.455 234.254 97.039l94.749 94.749c62.524 62.465 96.918 145.59 96.918 233.955 0 82.523-30.599 161.61-86.135 222.689zM1185.67 170.375l-94.749-94.749c-51.199-51.199-119.266-79.389-191.669-79.389h-567.958c-16.625 0-30.119 13.494-30.119 30.119 0 36.624 27.346 68.126 64.029 73.367l302.081 47.466c11.204 1.748 20.42 9.637 23.975 20.42 3.493 10.721 0.664 22.588-7.35 30.599l-451.942 451.942c-21.383 21.383-21.383 56.199 0.302 77.943 10.721 10.662 24.757 16.024 38.792 16.024s28.069-5.362 38.792-16.083l301.358-301.358c11.746-11.746 30.841-11.746 42.587 0 5.842 5.904 8.795 13.612 8.795 21.323s-2.951 15.419-8.855 21.323l-123.061 123.061c-21.383 21.383-21.383 56.14 0.361 77.884 21.323 21.323 56.199 21.323 77.523 0l123.12-123.12c11.746-11.746 30.841-11.746 42.587 0 5.842 5.904 8.795 13.612 8.795 21.323s-2.951 15.419-8.855 21.323l-62.826 62.826c-21.383 21.383-21.383 56.14 0.361 77.884 21.323 21.323 56.199 21.323 77.523 0l63.126-63.126c0.121-0.059 0.059-0.059 0.059-0.059l0.059-0.059c0.059-0.059 0.059-0.059 0.059-0.059 0.059-0.059 0.059-0.059 0.059-0.059h0.059c0.059 0 0.059-0.059 0.059-0.059 11.805-11.204 30.48-10.964 41.983 0.601 11.746 11.746 11.746 30.841 0 42.587l-2.589 2.589c-10.36 10.36-16.083 24.155-16.083 38.792s5.661 28.371 16.385 39.092c21.445 21.323 56.14 21.264 76.56 1.025l225.521-247.869c45.354-49.94 70.413-114.632 70.413-182.157 0-72.282-28.131-140.228-79.271-191.367zM517.781 800.194c-43.849 97.039-140.708 159.806-246.723 159.806-149.444 0-271.059-121.615-271.059-271.059 0-106.015 62.764-202.873 159.803-246.785 4.035-1.807 8.253-2.651 12.409-2.651 11.444 0 22.408 6.627 27.467 17.709 6.808 15.179 0.059 33.010-15.058 39.877-75.535 34.153-124.385 109.448-124.385 191.85 0 116.253 94.568 210.824 210.824 210.824 82.402 0 157.697-48.85 191.85-124.385 6.808-15.179 24.697-21.987 39.815-15.058 15.176 6.864 21.922 24.692 15.055 39.871z" />
<glyph unicode="&#xe950;" glyph-name="left_4" d="M0 447.648c0-282.144 229.856-511.648 512.352-511.648 282.144 0 511.648 229.504 511.648 511.648 0 282.496-229.504 512.352-511.648 512.352-282.496 0-512.352-229.856-512.352-512.352zM259.296 450.592l321.44 321.536 98.528-98.432-223.008-223.104 223.104-222.944-98.592-98.528-321.44 321.44z" />
<glyph unicode="&#xe951;" glyph-name="up_4" d="M511.648 960c-282.144 0-511.648-229.856-511.648-512.352 0-282.144 229.504-511.648 511.648-511.648 282.496 0 512.352 229.504 512.352 511.648 0 282.496-229.856 512.352-512.352 512.352zM514.592 700.704l321.536-321.44-98.432-98.592-223.104 223.104-222.944-223.104-98.528 98.592 321.44 321.44z" />
<glyph unicode="&#xe952;" glyph-name="left_3" d="M465.067 42.667l34.133 34.133c8.533 8.533 17.067 25.6 17.067 38.4 0 17.067-4.267 29.867-17.067 38.4l-217.6 217.6h686.933c29.867 0 55.467 25.6 55.467 55.467v46.933c0 29.867-25.6 55.467-55.467 55.467v0h-686.933l213.333 217.6c8.533 8.533 17.067 25.6 17.067 38.4 0 17.067-4.267 29.867-17.067 38.4l-34.133 34.133c-8.533 8.533-25.6 17.067-38.4 17.067-17.067 0-29.867-4.267-38.4-17.067l-371.2-371.2c-8.533-8.533-17.067-25.6-17.067-38.4 0-17.067 4.267-29.867 17.067-38.4l371.2-371.2c8.533-8.533 25.6-17.067 38.4-17.067 17.067 4.267 34.133 8.533 42.667 21.333z" />
</font>
</defs>
</svg>
